(R&B,Jazz) War - Platinum Jazz (Avenue 24 Karat Gold Collection) - 1977, WAVPack (image + .cue), lossless

Страна:
Жанр: R&B,Jazz
Год выпуска: 1977
Формат: WAVPack (image + .cue)
Битрейт аудио: lossless
Продолжительность: 01:17:46
Selected Tracks:
01. War Is Coming, War Is Coming [7:06]
02. Slowly We Walk Together [5:56]
03. Platinum Jazz [7:13]
04. I Got You [6:05]
05. L.A. Sunshine [9:56]
06. River Niger [8:42]
07. H2 Overture [4:01]
08. City, Country, City [7:25]
09. Smile Happy [4:02]
10. Deliver The Word [5:56]
11. Nappy Head [4:09]
12. Four Cornered Room [7:15]
Отчёт EAC
EAC extraction logfile from 29. March 2006, 16:30 for CD
War / Platinum Jazz
Used drive : PIONEER DVD RW DVR-106D Adapter: 1 ID: 0
Read mode : Secure with NO C2, accurate stream, disable cache
Read offset correction : 48
Overread into Lead-In and Lead-Out : No
Used output format : C:\Program Files\FLAC\flac.exe (User Defined Encoder)
128 kBit/s
Additional command line options : -5 -V -T "ARTIST=%a" -T "TITLE=%t" -T "ALBUM=%g" -T "DATE=%y" -T "TRACKNUMBER=%n" -T "GENRE=%m" -T "COMMENT=EAC Flac 1.1.2 -5" %s
Other options :
Fill up missing offset samples with silence : Yes
Delete leading and trailing silent blocks : No
Installed external ASPI interface
Track 1
Filename D:\War - Platinum Jazz (1997) [flac] (20bit Avenue Gold)\01 - War Is Coming, War Is Coming.wav
Pre-gap length 0:00:02.00
Peak level 98.8 %
Track quality 100.0 %
Test CRC 2D0058F4
Copy CRC 2D0058F4
Copy OK
Track 2
Filename D:\War - Platinum Jazz (1997) [flac] (20bit Avenue Gold)\02 - Slowly We Walk Together.wav
Pre-gap length 0:00:00.89
Peak level 98.0 %
Track quality 100.0 %
Test CRC 2C73C996
Copy CRC 2C73C996
Copy OK
Track 3
Filename D:\War - Platinum Jazz (1997) [flac] (20bit Avenue Gold)\03 - Platinum Jazz.wav
Pre-gap length 0:00:01.96
Peak level 98.8 %
Track quality 100.0 %
Test CRC 87147EB2
Copy CRC 87147EB2
Copy OK
Track 4
Filename D:\War - Platinum Jazz (1997) [flac] (20bit Avenue Gold)\04 - I Got You.wav
Pre-gap length 0:00:00.97
Peak level 98.0 %
Track quality 100.0 %
Test CRC C2683076
Copy CRC C2683076
Copy OK
Track 5
Filename D:\War - Platinum Jazz (1997) [flac] (20bit Avenue Gold)\05 - L.A. Sunshine.wav
Peak level 98.8 %
Track quality 100.0 %
Test CRC 529A483E
Copy CRC 529A483E
Copy OK
Track 6
Filename D:\War - Platinum Jazz (1997) [flac] (20bit Avenue Gold)\06 - River Niger.wav
Pre-gap length 0:00:03.36
Peak level 98.8 %
Track quality 100.0 %
Test CRC FA8C4FA6
Copy CRC FA8C4FA6
Copy OK
Track 7
Filename D:\War - Platinum Jazz (1997) [flac] (20bit Avenue Gold)\07 - H2 Overture.wav
Pre-gap length 0:00:01.49
Peak level 98.3 %
Track quality 100.0 %
Test CRC 6EA08790
Copy CRC 6EA08790
Copy OK
Track 8
Filename D:\War - Platinum Jazz (1997) [flac] (20bit Avenue Gold)\08 - City, Country, City.wav
Peak level 97.9 %
Track quality 100.0 %
Test CRC 247B8D00
Copy CRC 247B8D00
Copy OK
Track 9
Filename D:\War - Platinum Jazz (1997) [flac] (20bit Avenue Gold)\09 - Smile Happy.wav
Pre-gap length 0:00:03.40
Peak level 97.8 %
Track quality 100.0 %
Test CRC C2730D1E
Copy CRC C2730D1E
Copy OK
Track 10
Filename D:\War - Platinum Jazz (1997) [flac] (20bit Avenue Gold)\10 - Deliver The Word.wav
Pre-gap length 0:00:04.09
Peak level 98.0 %
Track quality 99.9 %
Test CRC 7FE29CC2
Copy CRC 7FE29CC2
Copy OK
Track 11
Filename D:\War - Platinum Jazz (1997) [flac] (20bit Avenue Gold)\11 - Nappy Head.wav
Pre-gap length 0:00:02.90
Peak level 97.7 %
Track quality 100.0 %
Test CRC CDD68765
Copy CRC CDD68765
Copy OK
Track 12
Filename D:\War - Platinum Jazz (1997) [flac] (20bit Avenue Gold)\12 - Four Cornered Room.wav
Pre-gap length 0:00:01.09
Peak level 98.8 %
Track quality 99.9 %
Test CRC B6BE73AA
Copy CRC B6BE73AA
Copy OK
No errors occured
End of status report
War






Спасибо камрад skroogly