(Latin,Funk,R&B) War - Why Can't We Be Friends (Avenue 24 Karat Gold Collection) - 1975, WAVPack (image + .cue), lossless

Страна:
Жанр: Latin,Funk,R&B
Год выпуска: 1975
Формат: WAVPack (image + .cue)
Битрейт аудио: lossless
Продолжительность: 00:44:36
Selected Tracks:
1. Don't Let No One Get You Down [4:06]
2. Lotus Blossom [4:02]
3. Heartbeat [7:28]
4. Leroy's Latin Lament (Medley) a) Lonnie Dreams b) The Way We Feel c) La Fiest... [6:45]
5. Smile Happy [7:25]
6. So [4:59]
7. Low Rider [3:12]
8. In Mazatlan [2:50]
9. Why Can't We Be Friends [3:49]
Отчёт EAC
EAC extraction logfile from 29. March 2006, 15:55 for CD
War / Why Can't We Be Friends
Used drive : PIONEER DVD RW DVR-106D Adapter: 1 ID: 0
Read mode : Secure with NO C2, accurate stream, disable cache
Read offset correction : 48
Overread into Lead-In and Lead-Out : No
Used output format : C:\Program Files\FLAC\flac.exe (User Defined Encoder)
128 kBit/s
Additional command line options : -5 -V -T "ARTIST=%a" -T "TITLE=%t" -T "ALBUM=%g" -T "DATE=%y" -T "TRACKNUMBER=%n" -T "GENRE=%m" -T "COMMENT=EAC Flac 1.1.2 -5" %s
Other options :
Fill up missing offset samples with silence : Yes
Delete leading and trailing silent blocks : No
Installed external ASPI interface
Track 1
Filename D:\War - Why Can't We Be Friends (1975) [flac] (20bit Avenue Gold)\01 - Don't Let No One Get You Down.wav
Pre-gap length 0:00:02.00
Peak level 94.4 %
Track quality 100.0 %
Test CRC F58F7189
Copy CRC F58F7189
Copy OK
Track 2
Filename D:\War - Why Can't We Be Friends (1975) [flac] (20bit Avenue Gold)\02 - Lotus Blossom.wav
Pre-gap length 0:00:02.10
Peak level 94.3 %
Track quality 100.0 %
Test CRC 92D951D4
Copy CRC 92D951D4
Copy OK
Track 3
Filename D:\War - Why Can't We Be Friends (1975) [flac] (20bit Avenue Gold)\03 - Heartbeat.wav
Pre-gap length 0:00:01.22
Peak level 94.3 %
Track quality 100.0 %
Test CRC 330F0261
Copy CRC 330F0261
Copy OK
Track 4
Filename D:\War - Why Can't We Be Friends (1975) [flac] (20bit Avenue Gold)\04 - Leroy's Latin Lament (Medley) a) Lonnie Dreams b) The Way We Feel c) La Fiesta d) Lament.wav
Peak level 94.3 %
Track quality 100.0 %
Test CRC 772DFEE3
Copy CRC 772DFEE3
Copy OK
Track 5
Filename D:\War - Why Can't We Be Friends (1975) [flac] (20bit Avenue Gold)\05 - Smile Happy.wav
Pre-gap length 0:00:01.04
Peak level 94.3 %
Track quality 100.0 %
Test CRC 9F2E6A34
Copy CRC 9F2E6A34
Copy OK
Track 6
Filename D:\War - Why Can't We Be Friends (1975) [flac] (20bit Avenue Gold)\06 - So.wav
Pre-gap length 0:00:01.46
Peak level 94.3 %
Track quality 100.0 %
Test CRC A22CC2F2
Copy CRC A22CC2F2
Copy OK
Track 7
Filename D:\War - Why Can't We Be Friends (1975) [flac] (20bit Avenue Gold)\07 - Low Rider.wav
Peak level 94.3 %
Track quality 100.0 %
Test CRC FC734D45
Copy CRC FC734D45
Copy OK
Track 8
Filename D:\War - Why Can't We Be Friends (1975) [flac] (20bit Avenue Gold)\08 - In Mazatlan.wav
Pre-gap length 0:00:00.46
Peak level 94.3 %
Track quality 100.0 %
Test CRC 1C1D055D
Copy CRC 1C1D055D
Copy OK
Track 9
Filename D:\War - Why Can't We Be Friends (1975) [flac] (20bit Avenue Gold)\09 - Why Can't We Be Friends.wav
Pre-gap length 0:00:01.62
Peak level 94.3 %
Track quality 100.0 %
Test CRC 9466BE7E
Copy CRC 9466BE7E
Copy OK
No errors occured
End of status report
War






Спасибо камрад skroogly