(R&B,Funk) War - The World Is A Ghetto (Avenue 24 Karat Gold Collection) - 1972, WAVPack (image + .cue), lossless

Страна:
Жанр: R&B,Funk
Год выпуска: 1972
Формат: WAVPack (image + .cue)
Битрейт аудио: lossless
Продолжительность: 00:43:49
Selected Tracks:
1. The Cisco Kid [4:32]
2. Where Was You At [3:25]
3. City, Country, City [13:16]
4. Four Cornered Room [8:33]
5. The World Is A Ghetto [10:09]
6. Beetles In The Bog [3:53]
Отчёт EAC
EAC extraction logfile from 22. January 2006, 11:03 for CD
War / The World Is A Ghetto
Used drive : PIONEER DVD RW DVR-106D Adapter: 1 ID: 0
Read mode : Secure with NO C2, accurate stream, disable cache
Read offset correction : 48
Overread into Lead-In and Lead-Out : No
Used output format : C:\Program Files\FLAC\flac.exe (User Defined Encoder)
128 kBit/s
Additional command line options : -5 -V -T "ARTIST=%a" -T "TITLE=%t" -T "ALBUM=%g" -T "DATE=%y" -T "TRACKNUMBER=%n" -T "GENRE=%m" -T "COMMENT=EAC Flac 1.1.2 -5" %s
Other options :
Fill up missing offset samples with silence : Yes
Delete leading and trailing silent blocks : No
Installed external ASPI interface
Track 1
Filename D:\War - The World Is A Ghetto (1972)[flac] (20bit Avenue Gold)\01 - The Cisco Kid.wav
Pre-gap length 0:00:02.00
Peak level 94.3 %
Track quality 100.0 %
Test CRC D56E0A19
Copy CRC D56E0A19
Copy OK
Track 2
Filename D:\War - The World Is A Ghetto (1972)[flac] (20bit Avenue Gold)\02 - Where Was You At.wav
Pre-gap length 0:00:00.46
Peak level 94.3 %
Track quality 100.0 %
Test CRC 117F5C33
Copy CRC 117F5C33
Copy OK
Track 3
Filename D:\War - The World Is A Ghetto (1972)[flac] (20bit Avenue Gold)\03 - City, Country, City.wav
Pre-gap length 0:00:00.60
Peak level 94.3 %
Track quality 100.0 %
Test CRC 846AC09E
Copy CRC 846AC09E
Copy OK
Track 4
Filename D:\War - The World Is A Ghetto (1972)[flac] (20bit Avenue Gold)\04 - Four Cornered Room.wav
Pre-gap length 0:00:01.33
Peak level 94.3 %
Track quality 99.9 %
Test CRC 5CB30506
Copy CRC 5CB30506
Copy OK
Track 5
Filename D:\War - The World Is A Ghetto (1972)[flac] (20bit Avenue Gold)\05 - The World Is A Ghetto.wav
Pre-gap length 0:00:01.02
Peak level 94.3 %
Track quality 100.0 %
Test CRC D46C5FC0
Copy CRC D46C5FC0
Copy OK
Track 6
Filename D:\War - The World Is A Ghetto (1972)[flac] (20bit Avenue Gold)\06 - Beetles In The Bog.wav
Peak level 94.3 %
Track quality 99.9 %
Test CRC F6BE7CC7
Copy CRC F6BE7CC7
Copy OK
No errors occured
End of status report
War






Спасибо камрад skroogly