(ambient) Howie B & Hubert Noi - Music For Astronauts And Cosmonauts - 2007, FLAC (image + .cue), lossless


Страна: uk
Жанр: ambient
Год выпуска: 2007
Формат: FLAC (image + .cue)
Битрейт аудио: lossless
Продолжительность: cd1 56:32, cd2 50:02
Трэклист:
1.01 Countdown (3:05)
1.02 Take Off (8:22)
1.03 Morning (22:30)
1.04 Day (22:31)
2.01 Evening (22:38)
2.02 Night (22:31)
2.03 Into Landing (4:57)
Отчет EAC cd1
Exact Audio Copy V0.99 prebeta 4 from 23. January 2008
Отчёт EAC об извлечении, выполненном 5. июня 2008, 13:21
Hubert Noi & Howie B / Music For Astronauts And Cosmonauts (CD1)
Дисковод: _NEC DVD_RW ND-3520AW Adapter: 1 ID: 0
Режим чтения : Достоверность
Использование точного потока : Да
Отключение кэша аудио : Да
Использование указателей C2 : Нет
Коррекция смещения при чтении : 48
Способность читать области Lead-in и Lead-out : Нет
Заполнение пропущенных сэмплов тишиной : Да
Удаление блоков с тишиной в начале и конце : Нет
При вычислениях CRC использовались нулевые сэмплы : Да
Интерфейс : Установленный внешний ASPI-интерфейс
Выходной формат : Внутренние WAV-операции
Формат сэмплов : 44.100 Гц; 16 бит; стерео
TOC извлечённого CD
Трек | Старт | Длительность | Начальный сектор | Конечный сектор
---------------------------------------------------------------------
1 | 0:00.00 | 3:05.65 | 0 | 13939
2 | 3:05.65 | 8:22.50 | 13940 | 51639
3 | 11:28.40 | 22:30.39 | 51640 | 152928
4 | 33:59.04 | 22:31.22 | 152929 | 254275
Характеристики диапазона извлечения и сообщения об ошибках
Выбранный диапазон
Имя файла D:\закачки\Hubert Noi & Howie B - Music For Astronauts And Cosmonauts (CD1).wav
Пиковый уровень 100.0 %
Качество диапазона 99.9 %
CRC теста 6CDDCCFC
CRC копии 6CDDCCFC
Копирование... OK
Ошибок не произошло
AccurateRip: сводка
Трек 1 нет в базе данных
Трек 2 нет в базе данных
Трек 3 нет в базе данных
Трек 4 нет в базе данных
Ни одного трека нет в базе AccurateRip
Конец отчёта
Отчет EAC cd2
Exact Audio Copy V0.99 prebeta 4 from 23. January 2008
Отчёт EAC об извлечении, выполненном 5. июня 2008, 13:40
Hubert Noi & Howie B / Music For Astronauts And Cosmonauts (CD2)
Дисковод: _NEC DVD_RW ND-3520AW Adapter: 1 ID: 0
Режим чтения : Достоверность
Использование точного потока : Да
Отключение кэша аудио : Да
Использование указателей C2 : Нет
Коррекция смещения при чтении : 48
Способность читать области Lead-in и Lead-out : Нет
Заполнение пропущенных сэмплов тишиной : Да
Удаление блоков с тишиной в начале и конце : Нет
При вычислениях CRC использовались нулевые сэмплы : Да
Интерфейс : Установленный внешний ASPI-интерфейс
Выходной формат : Внутренние WAV-операции
Формат сэмплов : 44.100 Гц; 16 бит; стерео
TOC извлечённого CD
Трек | Старт | Длительность | Начальный сектор | Конечный сектор
---------------------------------------------------------------------
1 | 0:00.00 | 22:38.28 | 0 | 101877
2 | 22:38.28 | 22:31.27 | 101878 | 203229
3 | 45:09.55 | 4:57.62 | 203230 | 225566
Характеристики диапазона извлечения и сообщения об ошибках
Выбранный диапазон
Имя файла D:\закачки\Hubert Noi & Howie B - Music For Astronauts And Cosmonauts (CD2).wav
Пиковый уровень 98.7 %
Качество диапазона 100.0 %
CRC теста 149482F9
CRC копии 149482F9
Копирование... OK
Ошибок не произошло
AccurateRip: сводка
Трек 1 нет в базе данных
Трек 2 нет в базе данных
Трек 3 нет в базе данных
Ни одного трека нет в базе AccurateRip
Конец отчёта