[SACD-R][OF] Bruckner - Symphony No.3, Wagner - Parsifal, Tristan und Isolde - Wiener Philharmoniker, Hans Knappertsbusch - 2017 (Classical)


Формат записи/Источник записи: [SACD-R][OF]
Наличие водяных знаков: Нет
Год издания/переиздания диска: 2017
Жанр: Classical
Издатель (лейбл): Praga Digitals
Продолжительность: 01:16:34
Наличие сканов в содержимом раздачи: Только обложка альбома
Треклист:
Bruckner: Symphony No. 3 in D minor ‘Wagner Symphony'
Wiener Philharmoniker, Hans Knappertsbusch
Wagner: Ich sah das Kind an seiner Mutter Brust (from Parsifal)
Wiener Philharmoniker, Hans Knappertsbusch, Kirsten Flagstad (soprano)
Vienna 1955
Wagner: Tristan und Isolde: Prelude & Liebestod
Wiener Philharmoniker, Hans Knappertsbusch, Birgit Nilsson (soprano)
Vienna 1958
Контейнер: ISO (*.iso)
Тип рипа: image
Разрядность: 64(2,8 MHz/1 Bit)
Формат: DST64
Количество каналов: 2.0
BackCover
Лог проверки качества
foobar2000 1.3.17 / Dynamic Range Meter 1.1.1
log date: 2018-05-19 00:22:08
--------------------------------------------------------------------------------
Analyzed: Wiener Philharmoniker,Hans Knappertsbusch,K.Flagstad,B.Nilsson / A.BRUCKNER-Symphony No.3, R.WAGNER-Parsifal:Kundray's Aria, Tristan und Isolde:Prelude,Liebestod
--------------------------------------------------------------------------------
DR Peak RMS Duration Track
--------------------------------------------------------------------------------
DR13 -6.24 dB -24.64 dB 19:05 01-ANTON BRUCKNER:SYMPHONY No.3 in D minor-I.Gemassigt, mehr bewegt, misterioso
DR13 -8.11 dB -27.63 dB 14:01 02-II.Adagio, bewegt. Quasi andante
DR12 -6.94 dB -24.23 dB 7:18 03-III.Scherzo, ziemlich schnell
DR13 -6.57 dB -24.90 dB 13:14 04-IV.Finale. Allegro
DR14 -7.60 dB -28.29 dB 5:45 05-RICHARD WAGNER:PARSIFAL-Act II. Kundry "Ich sah das Kind an seiner Mutter Brust"
DR14 -8.71 dB -29.29 dB 10:07 06-RICHARD WAGNER:TRISTAN UND ISOLDE-Prelude
DR13 -10.34 dB -28.25 dB 7:03 07-RICHARD WAGNER:TRISTAN UND ISOLDE-Liebestod "Mild und leise wie er lachelt"
--------------------------------------------------------------------------------
Number of tracks: 7
Official DR value: DR13
Samplerate: 2822400 Hz / PCM Samplerate: 88200 Hz
Channels: 2
Bits per sample: 1
Bitrate: 5645 kbps
Codec: DST64
================================================================================
Доп. информация:

Источник (релизер): собственный рип
Оркестр: Wiener Philharmoniker
Композитор: Anton Bruckner, Richard Wagner
Дирижер: Hans Knappertsbusch