[VIDEO] Иностранец / The Foreigner (Мартин Кэмпбелл / Martin Campbell) [2017, боевик, триллер, драма, BDRip] [MP4, 1280x] Dub (Rus, Ukr), VO Карповский, VO Живов, VO Чадов, Original, Sub (rus, eng)




Год выпуска: 2017
Страна: Великобритания, Китай, США
Жанр: боевик, триллер, драма
Продолжительность: 01:53:52
Перевод №1: русский Профессиональный (полное дублирование) BD RUS
Перевод №2: украинский Профессиональный (полное дублирование) Line
Перевод №3: русский Авторский (одноголосый, закадровый) А.Карповский
Перевод №4: русский Авторский (одноголосый, закадровый) Ю.Живов
Перевод №5: русский Одноголосый (закадровый) М.Чадов Ненормативная лексика
Оригинальная дорожка: Есть
Субтитры: русские (форсированные (на диалоги на китайском)), английские (полные), (SDH)

Режиссер: Мартин Кэмпбелл / Martin Campbell
В ролях: Джеки Чан, Пирс Броснан, Майкл МакЭлхаттон, Тао Лю, Чарли Мёрфи, Орла Брэйди, Кэти Льюнг, Рэй Фиарон и другие .
Описание: Бывший спецагент, ветеран вьетнамской войны Цюань давно сложил оружие и завел мирную жизнь. Но после того, как в теракте прямо на глазах погибает его дочь-подросток, видя, что власти не спешат разыскивать преступников, Цюань сам начинает поиск убийцы. Он пойдет на все, чтобы совершить праведное возмездие…
Доп. информация:
  • В основе энкода гибридный ремукс из двух исходников - BD US и BD GER, т.е. хардсаб отсутствует:
    The Foreigner 2017 1080p Hybrid Remux AVC DTS-HD MA 7.1-BiZKiT
  • За любезно предоставленный исходник The Foreigner 2017 1080p Hybrid Remux AVC DTS-HD MA 7.1-BiZKiT большое спасибо arestarh1986

Релиз группы
Качество: BDRip / рип с The Foreigner 2017 1080p Hybrid Remux AVC DTS-HD MA 7.1-BiZKiT
Формат: MP4
Видео кодек: H.264
Аудио кодек: AAC
Видео: 1280x536 AR:2.39 1700 kbps 23.976 fps
Аудио №1: [Russian] 2ch 48 kHz 128 kbps - [Dub] Профессиональный (полное дублирование) BD RUS
Аудио №2: [Ukrainian] 2ch 48 kHz 128 kbps - [Dub] Профессиональный (полное дублирование) Line
Аудио №3: [Russian] 2ch 48 kHz 128 kbps - [VO] Авторский (одноголосый, закадровый) А.Карповский
Аудио №4: [Russian] 2ch 48 kHz 128 kbps - [VO] Авторский (одноголосый, закадровый) Ю.Живов
Аудио №5: [Russian] 2ch 48 kHz 128 kbps - [VO] Одноголосый (закадровый) М.Чадов Ненормативная лексика
Аудио №6: [English] 2ch 48 kHz 128 kbps - Original

Logx264
avs [info]: 1280x536p 1:1 @ 24000/1001 fps (cfr)
x264 [info]: using SAR=1/1
x264 [info]: using cpu capabilities: MMX2 SSE2Fast SSSE3 SSE4.2 AVX FMA3 BMI2 AVX2
x264 [info]: profile High, level 4.1
x264 [info]: frame I:1324 Avg QP:15.29 size: 74107
x264 [info]: frame P:38792 Avg QP:19.29 size: 18726
x264 [info]: frame B:123678 Avg QP:20.77 size: 5057
x264 [info]: consecutive B-frames: 4.3% 4.0% 9.0% 19.3% 14.1% 33.4% 7.0% 3.9% 2.8% 2.3%
x264 [info]: mb I I16..4: 8.4% 72.7% 19.0%
x264 [info]: mb P I16..4: 1.2% 8.5% 1.4% P16..4: 35.4% 35.4% 8.2% 0.0% 0.0% skip:10.0%
x264 [info]: mb B I16..4: 0.1% 0.8% 0.1% B16..8: 32.7% 13.9% 1.6% direct: 2.3% skip:48.5% L0:45.0% L1:46.5% BI: 8.5%
x264 [info]: 8x8 transform intra:76.7% inter:66.6%
x264 [info]: direct mvs spatial:98.2% temporal:1.8%
x264 [info]: coded y,uvDC,uvAC intra: 80.2% 70.1% 36.7% inter: 12.2% 9.0% 3.1%
x264 [info]: i16 v,h,dc,p: 27% 10% 4% 59%
x264 [info]: i8 v,h,dc,ddl,ddr,vr,hd,vl,hu: 12% 7% 4% 9% 14% 14% 14% 12% 13%
x264 [info]: i4 v,h,dc,ddl,ddr,vr,hd,vl,hu: 15% 8% 5% 9% 15% 13% 13% 10% 11%
x264 [info]: i8c dc,h,v,p: 30% 29% 22% 19%
x264 [info]: Weighted P-Frames: Y:7.4% UV:4.4%
x264 [info]: ref P L0: 52.6% 8.9% 16.9% 6.3% 5.2% 3.9% 3.5% 2.4% 0.3% 0.0%
x264 [info]: ref B L0: 70.9% 12.8% 7.3% 3.7% 3.2% 1.6% 0.6%
x264 [info]: ref B L1: 93.0% 7.0%
x264 [info]: kb/s:1697.96
encoded 163794 frames, 12.59 fps, 1697.96 kb/s
ТХ/MediaInfo
General
Complete name : K:\Torrents\The Foreigner.2017.BDRip.x264.1280x.rip by Frost O.S.mp4
Format : MPEG-4
Format profile : 3GPP Release 6 General
Codec ID : 3gg6 (isom/3gg6/mp42)
File size : 1.97 GiB
Duration : 1 h 53 min
Overall bit rate mode : Variable
Overall bit rate : 2 479 kb/s
Encoded date : UTC 2018-09-04 09:44:45
Tagged date : UTC 2018-09-04 09:44:45
Writing application : Yamb 2.1.0.0
Video
ID : 1
Format : AVC
Format/Info : Advanced Video Codec
Format profile : High@L4.1
Format settings : CABAC / 8 Ref Frames
Format settings, CABAC : Yes
Format settings, RefFrames : 8 frames
Codec ID : avc1
Codec ID/Info : Advanced Video Coding
Duration : 1 h 53 min
Bit rate : 1 700 kb/s
Maximum bit rate : 9 118 kb/s
Width : 1 280 pixels
Height : 536 pixels
Display aspect ratio : 2.40:1
Frame rate mode : Constant
Frame rate : 23.976 (24000/1001) FPS
Color space : YUV
Chroma subsampling : 4:2:0
Bit depth : 8 bits
Scan type : Progressive
Bits/(Pixel*Frame) : 0.103
Stream size : 1.35 GiB (68%)
Writing library : x264 core 152 r2851 ba24899
Encoding settings : cabac=1 / ref=8 / deblock=1:-2:-2 / analyse=0x3:0x113 / me=umh / subme=11 / psy=1 / psy_rd=0.95:0.00 / mixed_ref=1 / me_range=32 / chroma_me=1 / trellis=2 / 8x8dct=1 / cqm=0 / deadzone=21,11 / fast_pskip=0 / chroma_qp_offset=-2 / threads=6 / lookahead_threads=1 / sliced_threads=0 / nr=0 / decimate=0 / interlaced=0 / bluray_compat=0 / constrained_intra=0 / bframes=9 / b_pyramid=2 / b_adapt=2 / b_bias=0 / direct=3 / weightb=1 / open_gop=0 / weightp=2 / keyint=250 / keyint_min=23 / scenecut=40 / intra_refresh=0 / rc=2pass / mbtree=0 / bitrate=1700 / ratetol=1.0 / qcomp=0.70 / qpmin=0 / qpmax=69 / qpstep=4 / cplxblur=20.0 / qblur=0.5 / ip_ratio=1.40 / pb_ratio=1.30 / aq=1:0.80
Encoded date : UTC 2018-09-03 13:15:09
Tagged date : UTC 2018-09-04 09:45:14
Color range : Limited
Color primaries : BT.709
Transfer characteristics : BT.709
Matrix coefficients : BT.709
Audio #1
ID : 2
Format : AAC
Format/Info : Advanced Audio Codec
Format profile : LC
Codec ID : mp4a-40-2
Duration : 1 h 53 min
Bit rate mode : Variable
Bit rate : 128 kb/s
Maximum bit rate : 136 kb/s
Channel(s) : 2 channels
Channel positions : Front: L R
Sampling rate : 48.0 kHz
Frame rate : 46.875 FPS (1024 SPF)
Compression mode : Lossy
Stream size : 104 MiB (5%)
Title : Russian / Dub, BD RUS
Encoded date : UTC 2018-09-03 17:23:47
Tagged date : UTC 2018-09-04 09:45:14
Audio #2
ID : 3
Format : AAC
Format/Info : Advanced Audio Codec
Format profile : LC
Codec ID : mp4a-40-2
Duration : 1 h 53 min
Bit rate mode : Variable
Bit rate : 128 kb/s
Maximum bit rate : 138 kb/s
Channel(s) : 2 channels
Channel positions : Front: L R
Sampling rate : 48.0 kHz
Frame rate : 46.875 FPS (1024 SPF)
Compression mode : Lossy
Stream size : 104 MiB (5%)
Title : Ukrainian / Dub, Line
Encoded date : UTC 2018-09-03 17:45:04
Tagged date : UTC 2018-09-04 09:45:14
Audio #3
ID : 4
Format : AAC
Format/Info : Advanced Audio Codec
Format profile : LC
Codec ID : mp4a-40-2
Duration : 1 h 53 min
Bit rate mode : Variable
Bit rate : 128 kb/s
Maximum bit rate : 137 kb/s
Channel(s) : 2 channels
Channel positions : Front: L R
Sampling rate : 48.0 kHz
Frame rate : 46.875 FPS (1024 SPF)
Compression mode : Lossy
Stream size : 104 MiB (5%)
Title : Russian / VO, Karpovskiy
Encoded date : UTC 2018-09-03 17:34:06
Tagged date : UTC 2018-09-04 09:45:14
Audio #4
ID : 5
Format : AAC
Format/Info : Advanced Audio Codec
Format profile : LC
Codec ID : mp4a-40-2
Duration : 1 h 53 min
Bit rate mode : Variable
Bit rate : 128 kb/s
Maximum bit rate : 136 kb/s
Channel(s) : 2 channels
Channel positions : Front: L R
Sampling rate : 48.0 kHz
Frame rate : 46.875 FPS (1024 SPF)
Compression mode : Lossy
Stream size : 104 MiB (5%)
Title : Russian / VO, Zhuvov
Encoded date : UTC 2018-09-03 17:37:14
Tagged date : UTC 2018-09-04 09:45:14
Audio #5
ID : 6
Format : AAC
Format/Info : Advanced Audio Codec
Format profile : LC
Codec ID : mp4a-40-2
Duration : 1 h 53 min
Bit rate mode : Variable
Bit rate : 128 kb/s
Maximum bit rate : 137 kb/s
Channel(s) : 2 channels
Channel positions : Front: L R
Sampling rate : 48.0 kHz
Frame rate : 46.875 FPS (1024 SPF)
Compression mode : Lossy
Stream size : 104 MiB (5%)
Title : Russian / VO, Chadov
Encoded date : UTC 2018-09-03 17:41:15
Tagged date : UTC 2018-09-04 09:45:14
Audio #6
ID : 7
Format : AAC
Format/Info : Advanced Audio Codec
Format profile : LC
Codec ID : mp4a-40-2
Duration : 1 h 53 min
Bit rate mode : Variable
Bit rate : 128 kb/s
Maximum bit rate : 137 kb/s
Channel(s) : 2 channels
Channel positions : Front: L R
Sampling rate : 48.0 kHz
Frame rate : 46.875 FPS (1024 SPF)
Compression mode : Lossy
Stream size : 104 MiB (5%)
Title : English / Original
Encoded date : UTC 2018-09-03 17:48:58
Tagged date : UTC 2018-09-04 09:45:14
Text #1
ID : 8
Format : Timed Text
Codec ID : tx3g
Duration : 28 min 12 s
Bit rate mode : Variable
Bit rate : 3 b/s
Stream size : 634 Bytes (0%)
Title : Russian / Forced
Forced : No
Encoded date : UTC 2018-09-04 09:45:14
Tagged date : UTC 2018-09-04 09:45:14
Text #2
ID : 9
Format : Timed Text
Codec ID : tx3g
Duration : 1 h 46 min
Bit rate mode : Variable
Bit rate : 60 b/s
Stream size : 47.1 KiB (0%)
Title : English / Full
Forced : No
Encoded date : UTC 2018-09-04 09:45:14
Tagged date : UTC 2018-09-04 09:45:14
Text #3
ID : 10
Format : Timed Text
Codec ID : tx3g
Duration : 1 h 46 min
Bit rate mode : Variable
Bit rate : 63 b/s
Stream size : 49.0 KiB (0%)
Title : English / SDH
Forced : No
Encoded date : UTC 2018-09-04 09:45:14
Tagged date : UTC 2018-09-04 09:45:14
Скриншоты