[VIDEO] Иностранец / The Foreigner (Мартин Кэмпбелл / Martin Campbell) [2017, боевик, триллер, драма, BDRip] [MP4, 480x] Dub BD RUS




Год выпуска: 2017
Страна: Великобритания, Китай, США
Жанр: боевик, триллер, драма
Продолжительность: 01:53:52
Перевод: русский Профессиональный (полное дублирование) BD RUS
Субтитры: нет

Режиссер: Мартин Кэмпбелл / Martin Campbell
В ролях: Джеки Чан, Пирс Броснан, Майкл МакЭлхаттон, Тао Лю, Чарли Мёрфи, Орла Брэйди, Кэти Льюнг, Рэй Фиарон и другие .
Описание: Бывший спецагент, ветеран вьетнамской войны Цюань давно сложил оружие и завел мирную жизнь. Но после того, как в теракте прямо на глазах погибает его дочь-подросток, видя, что власти не спешат разыскивать преступников, Цюань сам начинает поиск убийцы. Он пойдет на все, чтобы совершить праведное возмездие…
Доп. информация:
  • В основе энкода гибридный ремукс из двух исходников - BD US и BD GER, т.е. хардсаб отсутствует:
    The Foreigner 2017 1080p Hybrid Remux AVC DTS-HD MA 7.1-BiZKiT
  • За любезно предоставленный исходник The Foreigner 2017 1080p Hybrid Remux AVC DTS-HD MA 7.1-BiZKiT большое спасибо arestarh1986

Релиз группы
Качество: BDRip / рип с The Foreigner 2017 1080p Hybrid Remux AVC DTS-HD MA 7.1-BiZKiT
Формат: MP4
Видео кодек: XviD
Аудио кодек: AAC
Видео: 480x200 AR:2.40 485 kbps 23.976 fps
Аудио: [Russian] 2ch 48 kHz 128 kbps - [Dub] Профессиональный (полное дублирование) BD RUS

ТХ/MediaInfo
General
Complete name : K:\Torrents\The Foreigner.2017.BDRip.XviD.480x.rip by Frost O.S.mp4
Format : MPEG-4
Format profile : 3GPP Media Release 5
Codec ID : 3gp5 (isom/3gp5/3gp4/mp41/mp42)
File size : 502 MiB
Duration : 1 h 53 min
Overall bit rate mode : Variable
Overall bit rate : 616 kb/s
Encoded date : UTC 2018-09-04 10:05:13
Tagged date : UTC 2018-09-04 10:05:13
Video
ID : 1
Format : MPEG-4 Visual
Format profile : Advanced Simple@L5
Format settings : BVOP / Custom Matrix
Format settings, BVOP : Yes
Format settings, QPel : No
Format settings, GMC : No warppoints
Format settings, Matrix : Custom
Codec ID : mp4v-20
Duration : 1 h 53 min
Bit rate mode : Variable
Bit rate : 485 kb/s
Maximum bit rate : 4 254 kb/s
Width : 480 pixels
Height : 200 pixels
Display aspect ratio : 2.40:1
Frame rate mode : Variable
Frame rate : 23.976 (23976/1000) FPS
Minimum frame rate : 11.988 FPS
Maximum frame rate : 23.976 FPS
Original frame rate : 23.976 (24000/1001) FPS
Color space : YUV
Chroma subsampling : 4:2:0
Bit depth : 8 bits
Scan type : Progressive
Compression mode : Lossy
Bits/(Pixel*Frame) : 0.211
Stream size : 395 MiB (79%)
Title : avi@GPAC0.5.2-DEV-rev248-g39d5978-master
Writing library : XviD 1.2.1 (UTC 2008-12-04)
Encoded date : UTC 2018-09-03 19:28:34
Tagged date : UTC 2018-09-04 10:05:18
Audio
ID : 2
Format : AAC
Format/Info : Advanced Audio Codec
Format profile : LC
Codec ID : mp4a-40-2
Duration : 1 h 53 min
Bit rate mode : Variable
Bit rate : 128 kb/s
Maximum bit rate : 136 kb/s
Channel(s) : 2 channels
Channel positions : Front: L R
Sampling rate : 48.0 kHz
Frame rate : 46.875 FPS (1024 SPF)
Compression mode : Lossy
Stream size : 104 MiB (21%)
Title : Russian / Dub, BD RUS
Encoded date : UTC 2018-09-03 17:23:47
Tagged date : UTC 2018-09-04 10:05:18
Скриншоты