Великолепная Долли / Великолепная кукла / Magnificent Doll (Фрэнк Борзеги (Борзедж) / Frank Borzage) [1946, США, историческая драма, BDRemux 1080p] VO (А. Яковлев) + Sub Eng + Original Eng


Страна: США
Студия: Hallmark Productions
Жанр: историческая драма
Год выпуска: 1946
Продолжительность: 01:34:44
Перевод: Одноголосый закадровый А. Яковлев
Субтитры: английские
Оригинальная аудиодорожка: английский
Режиссер: Фрэнк Борзеги (Борзедж) / Frank Borzage
В ролях: Джинджер Роджерс, Дэвид Нивен, Бёрджесс Мередит, Пегги Вуд, Стефен МакНалли, Роберт Бэррат, Грэндон Родс, Фрэнсис Э. Уильямс, Генри Летондаль, Джозеф Форте, Эрвилль Алдерсон, Сэм Эш,
Джордж Бэрроус, Ларри Дж. Блейк, Стэнли Блистоун и др.
Описание: Экранизация новеллы Ирвинга Стоуна
Конец XVIII века. Вдова Долли Пейн Тодд и ее мать, ведущие затворнический образ жизни в Филадельфии, вынуждены сдавать комнаты, чтобы поправить свое финансовое положение. Скоро в их доме начали появляться многие политические деятели того времени, среди которых сенатор из Нью-Йорка Аарон Берр и конгрессмен из Вирджинии Джеймс Мэдисон. Будучи друзьями, Берр и Мэдисон являются яростными политическими оппонентами. Скоро к политическим противоречиям добавляется и соперничество за благосклонность Долли. Выбрав, в конце концов, Мэдисона, Долли не только становится заметной фигурой в вашингтонском обществе, но и оказывает значительное влияние на политическую жизнь молодого американского государства.





Доп. информация:
Большое Спасибо всем, кто принял участие в появлении перевода и озвучки к этому фильму:
Магда, Lafajet, jasenka, елена 22, yanaelisa, Ugo927, voostorg, HippopotamusIV, cementit, борюська, leoder, Simpun, duum100, sapog1960, old76
Тип релиза: BDRemux 1080p (Magnificent Doll 1946 1080p BluRay REMUX AVC FLAC 2.0-EPSiLON)
Контейнер: MKV
Видео: AVC / 1920x1080 / 16:9 / 23.976 fps / 26275 Kbps / High@L4.1
Аудио 1 Rus: AC3 / 48.0 KHz / 2.0 / 192 kbps / VO / А. Яковлев
Аудио 2 Rus: FLAC / 48.0 KHz / 2.0 / 341 kbps / 16 bit / VO / А. Яковлев
Аудио 3 Eng: FLAC / 48.0 KHz / 2.0 / 314 kbps / 16 bit
Аудио 4 Eng: FLAC / 48.0 KHz / 2.0 / 294 kbps / 16 bit / Commentary by film historians David Del Valle and Sloan De Forest
Формат субтитров: softsub (SRT)
MediaInfo
Общее
Уникальный идентификатор : 312041417195461615972146237783789762441 (0xEAC0FDAD5D38CD73198F63F29A977789)
Полное имя : E:\porvaliparus.2018\Magnificent.Doll.1946.BDRemux.1080p.mkv
Формат : Matroska
Версия формата : Version 4 / Version 2
Размер файла : 18,1 Гбайт
Продолжительность : 1 ч. 34 м.
Режим общего битрейта : Переменный
Общий поток : 27,4 Мбит/сек
Название фильма : Magnificent.Doll.1946.BDRemux.1080p-porvaliparus
Дата кодирования : UTC 2018-05-15 05:49:11
Программа кодирования : mkvmerge v23.0.0 ('The Bride Said No') 64-bit
Библиотека кодирования : libebml v1.3.6 + libmatroska v1.4.9
Видео
Идентификатор : 1
Формат : AVC
Формат/Информация : Advanced Video Codec
Профиль формата : High@L4.1
Настройки формата : CABAC / 4 Ref Frames
Параметр CABAC формата : Да
Параметр RefFrames формата : 4 кадра
Идентификатор кодека : V_MPEG4/ISO/AVC
Продолжительность : 1 ч. 34 м.
Вид битрейта : Переменный
Битрейт : 26,3 Мбит/сек
Максимальный битрейт : 32,0 Мбит/сек
Ширина : 1920 пикселей
Высота : 1080 пикселей
Соотношение сторон : 16:9
Режим частоты кадров : Постоянный
Частота кадров : 23,976 (24000/1001) кадра/сек
Стандарт вещания : NTSC
Цветовое пространство : YUV
Субдискретизация насыщенности : 4:2:0
Битовая глубина : 8 бит
Тип развёртки : Прогрессивная
Бит/(Пиксели*Кадры) : 0.529
Размер потока : 17,4 Гбайт (96%)
Заголовок : Magnificent.Doll.1946.BDRemux.1080p
Default : Да
Forced : Нет
Цветовой диапазон : Limited
Основные цвета : BT.709
Характеристики трансфера : BT.709
Коэффициенты матрицы : BT.709
Аудио #1
Идентификатор : 2
Формат : AC-3
Формат/Информация : Audio Coding 3
Идентификатор кодека : A_AC3
Продолжительность : 1 ч. 34 м.
Вид битрейта : Постоянный
Битрейт : 192 Кбит/сек
Каналы : 2 канала
Расположение каналов : Front: L R
Частота : 48,0 КГц
Частота кадров : 31,250 кадров/сек (1536 SPF)
Битовая глубина : 16 бит
Метод сжатия : С потерями
Размер потока : 130 Мбайт (1%)
Заголовок : VO [А. Яковлев]
Язык : Russian
ServiceKind/String : Complete Main
Default : Да
Forced : Нет
Аудио #2
Идентификатор : 3
Формат : FLAC
Формат/Информация : Free Lossless Audio Codec
Идентификатор кодека : A_FLAC
Продолжительность : 1 ч. 34 м.
Вид битрейта : Переменный
Битрейт : 341 Кбит/сек
Каналы : 2 канала
Расположение каналов : Front: L R
Частота : 48,0 КГц
Частота кадров : 11,719 кадров/сек (4096 SPF)
Битовая глубина : 16 бит
Размер потока : 231 Мбайт (1%)
Заголовок : VO [А. Яковлев]
Библиотека кодирования : libFLAC 20080709 (UTC 2008-07-09)
Язык : Russian
Default : Нет
Forced : Нет
Аудио #3
Идентификатор : 4
Формат : FLAC
Формат/Информация : Free Lossless Audio Codec
Идентификатор кодека : A_FLAC
Продолжительность : 1 ч. 34 м.
Вид битрейта : Переменный
Битрейт : 314 Кбит/сек
Каналы : 2 канала
Расположение каналов : Front: L R
Частота : 48,0 КГц
Частота кадров : 11,719 кадров/сек (4096 SPF)
Битовая глубина : 16 бит
Размер потока : 213 Мбайт (1%)
Библиотека кодирования : libFLAC 20080709 (UTC 2008-07-09)
Язык : English
Default : Нет
Forced : Нет
Аудио #4
Идентификатор : 5
Формат : FLAC
Формат/Информация : Free Lossless Audio Codec
Идентификатор кодека : A_FLAC
Продолжительность : 1 ч. 34 м.
Вид битрейта : Переменный
Битрейт : 294 Кбит/сек
Каналы : 2 канала
Расположение каналов : Front: L R
Частота : 48,0 КГц
Частота кадров : 11,719 кадров/сек (4096 SPF)
Битовая глубина : 16 бит
Размер потока : 199 Мбайт (1%)
Заголовок : Commentary by film historians David Del Valle and Sloan De Forest
Библиотека кодирования : libFLAC 1.2.1 (UTC 2007-09-17)
Язык : English
Default : Нет
Forced : Нет
Текст
Идентификатор : 6
Формат : UTF-8
Идентификатор кодека : S_TEXT/UTF8
Идентификатор кодека/Информация : UTF-8 Plain Text
Продолжительность : 1 ч. 32 м.
Битрейт : 95 бит/сек
ElementCount : 1543
Размер потока : 64,9 Кбайт (0%)
Язык : English
Default : Нет
Forced : Нет
Меню
00:00:00.000 : en:00:00:00.000
00:07:32.452 : en:00:07:32.452
00:15:50.950 : en:00:15:50.950
00:19:46.185 : en:00:19:46.185
00:31:11.870 : en:00:31:11.870
00:37:40.258 : en:00:37:40.258
00:44:14.652 : en:00:44:14.652
00:48:55.933 : en:00:48:55.933
00:59:59.596 : en:00:59:59.596
01:09:52.188 : en:01:09:52.188
01:17:52.668 : en:01:17:52.668
01:28:15.290 : en:01:28:15.290
Скриншоты