Иностранец / The Foreigner (Мартин Кэмпбелл / Martin Campbell) [2017, Великобритания, Китай, США, боевик, триллер, драма, BDRip-AVC] Dub + Sub (rus)

x264/MediaInfo
---[Information] [05.04.2018 1:18:28] x264 [info]: frame I:1268 Avg QP:15.75 size: 39961
---[Information] [05.04.2018 1:18:28] x264 [info]: frame P:36468 Avg QP:19.69 size: 9766
---[Information] [05.04.2018 1:18:28] x264 [info]: frame B:126070 Avg QP:21.00 size: 2531
Общее
Уникальный идентификатор : 178161925732319958327124499607188793455 (0x8608BD2025577264940A85C3D7A5E86F)
Полное имя : M:\$new\The Foreigner (2017)\BDrus\The.Foreigner.2017.BDRip-AVC.RUS..stalkerok.new-team.mkv
Формат : Matroska
Версия формата : Version 4 / Version 2
Размер файла : 746 Мбайт
Продолжительность : 1 ч. 53 м.
Общий поток : 916 Кбит/сек
Название фильма : The Foreigner (2017) (Rip by stalkerok)
Дата кодирования : UTC 2018-04-05 10:52:18
Программа кодирования : mkvmerge v8.6.1 ('Flying') 64bit
Библиотека кодирования : libebml v1.3.3 + libmatroska v1.4.4
Видео
Идентификатор : 1
Формат : AVC
Формат/Информация : Advanced Video Codec
Профиль формата : High@L4.1
Параметр CABAC формата : Да
Параметр ReFrames формата : 16 кадров
Идентификатор кодека : V_MPEG4/ISO/AVC
Продолжительность : 1 ч. 53 м.
Битрейт : 850 Кбит/сек
Ширина : 874 пикселя
Высота : 366 пикселей
Соотношение сторон : 2,40:1
Режим частоты кадров : Постоянный
Частота кадров : 23,976 (24000/1001) кадра/сек
Цветовое пространство : YUV
Субдискретизация насыщенности : 4:2:0
Битовая глубина : 8 бит
Тип развёртки : Прогрессивная
Бит/(Пиксели*Кадры) : 0.111
Размер потока : 692 Мбайт (93%)
Заголовок : The Foreigner (2017) (Rip by stalkerok)
Библиотека кодирования : x264 core 155 r2901 7d0ff22
Настройки программы : cabac=1 / ref=16 / deblock=1:-3:-2 / analyse=0x3:0x133 / me=umh / subme=11 / psy=1 / psy_rd=1.00:0.00 / mixed_ref=1 / me_range=32 / chroma_me=1 / trellis=2 / 8x8dct=1 / cqm=0 / deadzone=21,11 / fast_pskip=0 / chroma_qp_offset=-2 / threads=11 / lookahead_threads=2 / sliced_threads=0 / nr=0 / decimate=0 / interlaced=0 / bluray_compat=0 / constrained_intra=0 / bframes=16 / b_pyramid=2 / b_adapt=2 / b_bias=0 / direct=3 / weightb=1 / open_gop=0 / weightp=2 / keyint=240 / keyint_min=23 / scenecut=40 / intra_refresh=0 / rc_lookahead=60 / rc=2pass / mbtree=0 / bitrate=850 / ratetol=1.0 / qcomp=0.65 / qpmin=0 / qpmax=69 / qpstep=4 / cplxblur=20.0 / qblur=0.5 / vbv_maxrate=50000 / vbv_bufsize=62500 / nal_hrd=none / filler=0 / ip_ratio=1.40 / pb_ratio=1.30 / aq=3:0.95 / zones=154148,163806,q=36
Default : Да
Forced : Нет
Аудио
Идентификатор : 2
Формат : AAC
Формат/Информация : Advanced Audio Codec
Профиль формата : HE-AAC / LC
Идентификатор кодека : A_AAC
Продолжительность : 1 ч. 53 м.
Битрейт : 64,0 Кбит/сек
Каналы : 2 канала
Расположение каналов : Front: L R
Частота : 48,0 КГц / 24,0 КГц
Частота кадров : 23,438 кадра/сек (1024 spf)
Метод сжатия : С потерями
Задержка видео : 31 мс.
Размер потока : 52,1 Мбайт (7%)
Язык : Russian
Default : Да
Forced : Нет
Текст #1
Идентификатор : 3
Формат : UTF-8
Идентификатор кодека : S_TEXT/UTF8
Идентификатор кодека/Информация : UTF-8 Plain Text
Продолжительность : 1 ч. 13 м.
Битрейт : 0 бит/сек
Count of elements : 2
Размер потока : 35,0 байт (0%)
Заголовок : Forced
Язык : Russian
Default : Да
Forced : Нет
Текст #2
Идентификатор : 4
Формат : UTF-8
Идентификатор кодека : S_TEXT/UTF8
Идентификатор кодека/Информация : UTF-8 Plain Text
Продолжительность : 1 ч. 46 м.
Битрейт : 86 бит/сек
Count of elements : 1142
Размер потока : 67,8 Кбайт (0%)
Язык : Russian
Default : Нет
Forced : Нет
Меню
00:00:00.000 : en:Chapter 1
00:08:19.540 : en:Chapter 2
00:15:49.572 : en:Chapter 3
00:21:47.763 : en:Chapter 4
00:27:04.163 : en:Chapter 5
00:32:09.509 : en:Chapter 6
00:35:24.163 : en:Chapter 7
00:38:30.931 : en:Chapter 8
00:43:50.168 : en:Chapter 9
00:47:38.188 : en:Chapter 10
00:54:10.496 : en:Chapter 11
01:01:42.322 : en:Chapter 12
01:08:07.333 : en:Chapter 13
01:14:14.032 : en:Chapter 14
01:18:42.926 : en:Chapter 15
01:23:26.876 : en:Chapter 16
01:29:18.810 : en:Chapter 17
01:38:55.011 : en:Chapter 18
01:43:45.927 : en:Chapter 19
01:47:09.296 : en:Chapter 20
Скриншоты