(Rock'n'Roll) [CD] The Beatles - Raw Energy - 1962 (Decca Audition remastered bootleg 1989), FLAC (image+.cue), lossless


Жанр: Rock'n'Roll
Носитель: CD
Страна-производитель диска (релиза): US (Unofficial Release)
Год издания: 1989
Издатель (лейбл): Romance Records
Номер по каталогу:
Страна исполнителя (группы): UK
Аудиокодек: FLAC (*.flac)
Тип рипа: image+.cue
Битрейт аудио: lossless
Продолжительность: 00:27:47
Источник (релизер): Автор раздачи
Наличие сканов в содержимом раздачи: да
Треклист:
01. To Know Her Is To Love Her
02. Crying, Waiting, Hoping
03. September In The Rain
04. Besame Mucho
05. Searchin'
06. Sheik Of Araby
07. Till There Was You
08. Take Good Care Of My Baby
09. Memphis
10. Sure To Fall
11. Money
12. Three Cool Cats
Лог создания рипа
Exact Audio Copy V0.99 prebeta 4 from 23. January 2008
Отчёт EAC об извлечении, выполненном 1. апреля 2018, 18:56
The Beatles / Raw Energy (Remastered)
Дисковод: _NEC DVD_RW ND-4571A Adapter: 0 ID: 1
Режим чтения : Достоверность
Использование точного потока : Да
Отключение кэша аудио : Да
Использование указателей C2 : Нет
Коррекция смещения при чтении : 48
Способность читать области Lead-in и Lead-out : Нет
Заполнение пропущенных сэмплов тишиной : Да
Удаление блоков с тишиной в начале и конце : Нет
При вычислениях CRC использовались нулевые сэмплы : Да
Интерфейс : Установленный внешний ASPI-интерфейс
Выходной формат : Пользовательский кодировщик
Выбранный битрейт : 768 kBit/s
Качество : Высокий
Добавление ID3-тэга : Нет
Утилита сжатия : C:\Program Files\Exact Audio Copy\FLAC\FLAC.EXE
Дополнительные параметры : -6 -V -T "ARTIST=%a" -T "TITLE=%t" -T "ALBUM=%g" -T "DATE=%y" -T "TRACKNUMBER=%n" -T "GENRE=%m" -T "COMMENT=%e" %s -o %d
TOC извлечённого CD
Трек | Старт | Длительность | Начальный сектор | Конечный сектор
---------------------------------------------------------------------
1 | 0:00.00 | 2:29.45 | 0 | 11219
2 | 2:29.45 | 1:58.36 | 11220 | 20105
3 | 4:28.06 | 1:52.14 | 20106 | 28519
4 | 6:20.20 | 2:34.65 | 28520 | 40134
5 | 8:55.10 | 2:57.56 | 40135 | 53465
6 | 11:52.66 | 1:37.42 | 53466 | 60782
7 | 13:30.33 | 2:56.41 | 60783 | 74023
8 | 16:26.74 | 2:23.29 | 74024 | 84777
9 | 18:50.28 | 2:17.17 | 84778 | 95069
10 | 21:07.45 | 2:00.62 | 95070 | 104131
11 | 23:08.32 | 2:21.34 | 104132 | 114740
12 | 25:29.66 | 2:17.73 | 114741 | 125088
Характеристики диапазона извлечения и сообщения об ошибках
Выбранный диапазон
Имя файла F:\The Beatles - Raw Energy (Remastered).wav
Пиковый уровень 81.0 %
Качество диапазона 100.0 %
CRC теста 547E65F3
CRC копии 547E65F3
Копирование... OK
Ошибок не произошло
AccurateRip: сводка
Трек 1 нет в базе данных
Трек 2 нет в базе данных
Трек 3 нет в базе данных
Трек 4 нет в базе данных
Трек 5 нет в базе данных
Трек 6 нет в базе данных
Трек 7 нет в базе данных
Трек 8 нет в базе данных
Трек 9 нет в базе данных
Трек 10 нет в базе данных
Трек 11 нет в базе данных
Трек 12 нет в базе данных
Ни одного трека нет в базе AccurateRip
Конец отчёта
Содержание индексной карты (.CUE)
REM GENRE "Rock & Roll"
REM DATE 1989
REM DISCID 8E06830C
REM COMMENT "ExactAudioCopy v0.99pb4"
PERFORMER "The Beatles"
TITLE "Raw Energy (Remastered)"
FILE "The Beatles - Raw Energy (Remastered).flac" WAVE
TRACK 01 AUDIO
TITLE "To Know Her Is To Love Her"
PERFORMER "The Beatles"
FLAGS DCP
INDEX 01 00:00:00
TRACK 02 AUDIO
TITLE "Crying, Waiting, Hoping"
PERFORMER "The Beatles"
FLAGS DCP
INDEX 00 02:27:45
INDEX 01 02:29:45
TRACK 03 AUDIO
TITLE "September In The Rain"
PERFORMER "The Beatles"
FLAGS DCP
INDEX 00 04:26:06
INDEX 01 04:28:06
TRACK 04 AUDIO
TITLE "Besame Mucho"
PERFORMER "The Beatles"
FLAGS DCP
INDEX 00 06:18:20
INDEX 01 06:20:20
TRACK 05 AUDIO
TITLE "Searchin'"
PERFORMER "The Beatles"
FLAGS DCP
INDEX 00 08:53:10
INDEX 01 08:55:10
TRACK 06 AUDIO
TITLE "Sheik of Araby"
PERFORMER "The Beatles"
FLAGS DCP
INDEX 00 11:50:66
INDEX 01 11:52:66
TRACK 07 AUDIO
TITLE "Till' There Was You"
PERFORMER "The Beatles"
FLAGS DCP
INDEX 00 13:28:33
INDEX 01 13:30:33
TRACK 08 AUDIO
TITLE "Take Good Care Of My Baby"
PERFORMER "The Beatles"
FLAGS DCP
INDEX 00 16:24:74
INDEX 01 16:26:74
TRACK 09 AUDIO
TITLE "Memphis"
PERFORMER "The Beatles"
FLAGS DCP
INDEX 00 18:48:28
INDEX 01 18:50:28
TRACK 10 AUDIO
TITLE "Sure to Fall"
PERFORMER "The Beatles"
FLAGS DCP
INDEX 00 21:05:45
INDEX 01 21:07:45
TRACK 11 AUDIO
TITLE "Money"
PERFORMER "The Beatles"
FLAGS DCP
INDEX 00 23:06:32
INDEX 01 23:08:32
TRACK 12 AUDIO
TITLE "Three Cool Cats"
PERFORMER "The Beatles"
FLAGS DCP
INDEX 00 25:27:66
INDEX 01 25:29:66
Скриншот спектра частот
Доп. информация: Переиздание сборника Битлз с записью Decca Audition, ранний вариант которого я выкладывал . Отличия от предыдущего релиза:
1. немного другое расположение треков на диске,
2. нормальное разбиение на треки - в первой версии cue-индексы были расставлены криво, так что начала нескольких песен оказались в конце предыдущих треков,
3. отсутствие извращений со стереобазой. На раннем издании была предпринята нелепая, но смешная попытка получить из монофонической записи псевдо-"стерео" путём выкручивания в одном канале низких частот, а в другом - средних. Этот вариант в настоящем моно, что делает его менее интересным, но гораздо более приятным для прослушивания.
Качество записи хромает, поэтому релиз скорее для комплетистов.
О происхождении сборника
Диск содержит 12 из 15 песен с прослушивания на студии Decca, состоявшегося 1-го января 1962-го года. Издатели тогда предпочли подписать контракт с местной лондонской группой, а Битлов проводили назад в Ливерпуль словами о том, что гитарные группы уже вымирают, и они им не интересны. Это решение считается самым большим провалом в истории музыкального шоубизнеса.
Существует легенда, что ленту, с которой были отпечатаны этот и несколько других ранних дисков, тайком переписал на диктофон журналист, которого пустили написать сюжет об оригинальной записи, ещё хранившейся на фирме Decca (позже она была стёрта). Более качественные релизы из 15 треков сделаны с другой ленты, украденной из квартиры Байана Эпстейна после его смерти. Подтвердить это уже никто не сможет, но качество записи на всех ранних дисках и правда напоминает звук со слегка поджёваной кассеты, записанной на каком-то примитивном девайте типа диктофона. Имейте это в виду.