Иностранец / The Foreigner (Мартин Кэмпбелл / Martin Campbell) [2017, Великобритания, Китай, США, боевик, криминал, детектив, BDRip] AVO (Юрий Живов)


Страна: Великобритания, Китай, США
Жанр: боевик, криминал, детектив
Год выпуска: 2017
Продолжительность: 01:53:52
Перевод: Авторский (одноголосый закадровый) Юрий Живов
Субтитры: нет
Режиссер: Мартин Кэмпбелл / Martin Campbell
В ролях: Джеки Чан, Пирс Броснан, Майкл МакЭлхаттон, Тао Лю, Чарли Мёрфи, Орла Брэйди, Кэти Льюнг, Рэй Фиарон, Руфус Джонс
Описание: Группа ирландских террористов-радикалов, прикрываясь идеалами морали и высокими профессиональными стандартами, организовывает ряд взрывов в Лондоне. В число первых жертв попадает и младшая дочь ветерана вьетнамской войны Нгок Мин Квана, долгое время успешно притворявшегося добрым. Убитый горем отец начинает ходить по инстанциям и вежливо задавать вопросы. И там, где вежливость оказывается бессильной, в ход идут более убедительные средства из арсенала когда-то лучшего подрывника по обе стороны фронта...

Сэмпл:
Качество видео: BDRip (Исходник The.Foreigner.2017.BDREMUX.1080p.ExKinoRay.mkv)
Формат видео: AVI
Видео: XviD 73, 720x304, (2,35:1), 23,976 fps, 2142 Кбит/с, 8 бит
Аудио: Русский (АС3, 6 ch (Front: L C R, Side: L R, LFE), 48,0 KHz, 448 Kbps)
MediaInfo
Общее
Полное имя : H:\Фильмы на трекер\Иностранец (боевик, триллер, криминал 2017 год).avi
Формат : AVI
Формат/Информация : Audio Video Interleave
Профиль формата : OpenDML
Размер файла : 2,07 Гбайт
Продолжительность : 1 ч. 53 м.
Общий поток : 2602 Кбит/сек
Программа кодирования : VirtualDubMod 1.5.10.3 | www.virtualdub-fr.org || (build 2550/release)
Библиотека кодирования : VirtualDubMod build 2550/release
Видео
Идентификатор : 0
Формат : MPEG-4 Visual
Профиль формата : Advanced Simple@L5
Параметр BVOP формата : 2
Параметр QPel формата : Нет
Параметр GMC формата : Без точки перехода
Параметр матрицы формата : Выборочная
Идентификатор кодека : XVID
Идентификатор кодека/Подсказка : XviD
Продолжительность : 1 ч. 53 м.
Битрейт : 2142 Кбит/сек
Ширина : 720 пикселей
Высота : 304 пикселя
Соотношение сторон : 2,35:1
Частота кадров : 23,976 (23976/1000) кадра/сек
Цветовое пространство : YUV
Субдискретизация насыщенности : 4:2:0
Битовая глубина : 8 бит
Тип развёртки : Прогрессивная
Метод сжатия : С потерями
Бит/(Пиксели*Кадры) : 0.408
Размер потока : 1,70 Гбайт (82%)
Библиотека кодирования : XviD 73
Аудио
Идентификатор : 1
Формат : AC-3
Формат/Информация : Audio Coding 3
Расширение режима : CM (complete main)
Параметр Endianness формата : Big
Идентификатор кодека : 2000
Продолжительность : 1 ч. 53 м.
Вид битрейта : Постоянный
Битрейт : 448 Кбит/сек
Каналы : 6 каналов
Расположение каналов : Front: L C R, Side: L R, LFE
Частота : 48,0 КГц
Частота кадров : 31,250 кадров/сек (1536 spf)
Метод сжатия : С потерями
Размер потока : 365 Мбайт (17%)
Выравнивание : Разделение по промежуткам
Продолжительность промежутка : 42 мс. (1,00 видеокадр)
Время предзагрузки промежутка : 500 мс.
Скриншот c названием фильма
Скриншоты