[iPad] Иностранец / The Foreigner (Мартин Кэмпбелл / Martin Campbell ) [2017, Великобритания, Китай, США , Боевик, триллер, драма, криминал, детектив, WEB-DLRip, SD (576p)] DUB

iTunes Meta Tags
Код:
Sort Name: Foreigner
XID: Apple:vendor_id:2017-618287
contentID: 1317020207
Copyright: © 2017 STX Financing, LLC. All Rights Reserved.
Screenwriters: Дэвид Маркони, Стефен Лезер
Producers: Орен Авив, Phillip Button, Джеки Чан
Director: Мартин Кэмпбелл
Cast: Джеки Чан, Пирс Броснан, Майкл МакЭлхаттон, Лю Тао, Чарли Мерфи, Орла Брэйди, Кэти Льюнг, Рэй Фиарон, Руфус Джонс, Марк Тэнди
Studio: STX Financing
Rating: 5
Long Description: Бывший спецагент, ветеран вьетнамской войны Цюань давно сложил оружие и завел мирную жизнь. Но после того, как в теракте прямо на глазах погибает его дочь-подросток, видя, что власти не спешат разыскивать преступников, Цюань сам начинает поиск убийцы. Он пойдет на все, чтобы совершить праведное возмездие…
Description: Бывший спецагент, ветеран вьетнамской войны Цюань давно сложил оружие и завел мирную жизнь. Но после того, как в теракте прямо на глазах погибает его дочь-подросток, видя, что власти не спешат разыскивать преступников, Цюань сам начинает поиск убийцы. Он пойдет на все, чтобы совершить праведное возмездие…
Release Date: 2017-09-24T08:00:00Z
Genre: Action & Adventure
Artist: Martin Campbell
Name: The Foreigner (2017)
MediaInfo
Код:
General
Complete name : /Users/imac/HandBrake/The.Foreigner.(SD).(pk).m4v
Format : MPEG-4
Codec ID : M4V
File size : 1.84 GiB
Duration : 1h 53mn
Overall bit rate mode : Variable
Overall bit rate : 2 331 Kbps
Movie name : The Foreigner (2017)
Performer : Martin Campbell
Director : Мартин Кэмпбелл
Actor : Джеки Чан / Пирс Броснан / Майкл МакЭлхаттон / Лю Тао / Чарли Мерфи / Орла Брэйди / Кэти Льюнг / Рэй Фиарон / Руфус Джонс / Марк Тэнди
Screenplay by : Дэвид Маркони / Стефен Лезер
Producer : Орен Авив / Phillip Button / Джеки Чан
Production studio : STX Financing
Genre : Action & Adventure
ContentType : Short Film
Description : Бывший спецагент, ветеран вьетнамской войны Цюань давно сложил оружие и завел мирную жизнь. Но после того, как в теракте прямо на глазах погибает его дочь-подросток, видя, что власти не спешат разыскивать преступников, Цюань сам начинает поиск убийцы. Он пойдет на все, чтобы совершить праведное возмездие…
Recorded date : UTC 2017-09-24 08:00:00
Encoded date : UTC 2017-12-27 08:53:42
Tagged date : UTC 2017-12-27 08:54:48
Copyright : © 2017 STX Financing, LLC. All Rights Reserved.
Cover : Yes
Rating : None
Title/Sort : Foreigner
LongDescription : Бывший спецагент, ветеран вьетнамской войны Цюань давно сложил оружие и завел мирную жизнь. Но после того, как в теракте прямо на глазах погибает его дочь-подросток, видя, что власти не спешат разыскивать преступников, Цюань сам начинает поиск убийцы. Он пойдет на все, чтобы совершить праведное возмездие…
AppleStoreCatalogID : 1317020207
Vendor : Apple:vendor_id:2017-618287
ContentRating : mpaa|R|400|
Video #1
ID : 1
Format : AVC
Format/Info : Advanced Video Codec
Format profile : High@L3.1
Format settings, CABAC : Yes
Format settings, ReFrames : 9 frames
Codec ID : avc1
Codec ID/Info : Advanced Video Coding
Duration : 1h 53mn
Source duration : 1h 53mn
Bit rate : 2 200 Kbps
Width : 1 024 pixels
Height : 432 pixels
Display aspect ratio : 2.40:1
Frame rate mode : Variable
Frame rate : 23.976 fps
Minimum frame rate : 23.974 fps
Maximum frame rate : 23.981 fps
Color space : YUV
Chroma subsampling : 4:2:0
Bit depth : 8 bits
Scan type : Progressive
Bits/(Pixel*Frame) : 0.207
Stream size : 1.74 GiB (94%)
Source stream size : 1.74 GiB (94%)
Title : Main Program
Writing library : x264 core 148 r2708 86b7198
Encoding settings : cabac=1 / ref=9 / deblock=1:0:0 / analyse=0x3:0x113 / me=umh / subme=9 / psy=1 / psy_rd=1.00:0.00 / mixed_ref=1 / me_range=32 / chroma_me=1 / trellis=1 / 8x8dct=1 / cqm=0 / deadzone=21,11 / fast_pskip=1 / chroma_qp_offset=-2 / threads=13 / lookahead_threads=1 / sliced_threads=0 / nr=0 / decimate=1 / interlaced=0 / bluray_compat=0 / constrained_intra=0 / bframes=6 / b_pyramid=2 / b_adapt=2 / b_bias=0 / direct=1 / weightb=1 / open_gop=0 / weightp=2 / keyint=240 / keyint_min=24 / scenecut=40 / intra_refresh=0 / rc_lookahead=40 / rc=2pass / mbtree=1 / bitrate=2200 / ratetol=1.0 / qcomp=0.60 / qpmin=0 / qpmax=69 / qpstep=4 / cplxblur=20.0 / qblur=0.5 / ip_ratio=1.40 / aq=1:1.00
Language : English
Encoded date : UTC 2017-12-27 08:53:42
Tagged date : UTC 2017-12-27 08:53:46
Color range : Limited
Color primaries : BT.709
Transfer characteristics : BT.709
Matrix coefficients : BT.709
Video #2
ID : 4
Format : JPEG
Codec ID : jpeg
Duration : 1h 53mn
Bit rate mode : Variable
Bit rate : 968 bps
Width : 640 pixels
Height : 270 pixels
Display aspect ratio : 2.40:1
Frame rate mode : Variable
Frame rate : 0.003 fps
Minimum frame rate : 0.002 fps
Maximum frame rate : 0.004 fps
Color space : YUV
Chroma subsampling : 4:2:0
Bit depth : 8 bits
Compression mode : Lossy
Bits/(Pixel*Frame) : 1.867
Stream size : 709 KiB (0%)
Title : Chapter Images
Language : English
Encoded date : UTC 2017-12-27 08:53:52
Tagged date : UTC 2017-12-27 08:53:52
Audio
ID : 2
Format : AAC
Format/Info : Advanced Audio Codec
Format profile : LC
Codec ID : 40
Duration : 1h 53mn
Source duration : 1h 53mn
Bit rate mode : Variable
Bit rate : 125 Kbps
Maximum bit rate : 182 Kbps
Channel(s) : 2 channels
Channel positions : Front: L R
Sampling rate : 48.0 KHz
Compression mode : Lossy
Stream size : 102 MiB (5%)
Source stream size : 102 MiB (5%)
Title : Russian Stereo
Language : Russian
Encoded date : UTC 2017-12-27 08:53:42
Tagged date : UTC 2017-12-27 08:53:48
Menu #1
00:00:00.000 : Глава 1
00:07:04.458 : Глава 2
00:13:39.583 : Глава 3
00:21:20.458 : Глава 4
00:27:58.041 : Глава 5
00:34:41.999 : Глава 6
00:40:47.624 : Глава 7
00:46:10.832 : Глава 8
00:51:57.873 : Глава 9
00:57:21.081 : Глава 10
01:02:44.872 : Глава 11
01:10:39.747 : Глава 12
01:16:54.455 : Глава 13
01:22:55.871 : Глава 14
01:28:47.454 : Глава 15
01:33:10.454 : Глава 16
01:38:23.079 : Глава 17
01:44:49.995 : Глава 18
Menu #2
ID : 3
Codec ID : text
Duration : 1h 53mn
Language : English
Encoded date : UTC 2017-12-27 08:53:48
Tagged date : UTC 2017-12-27 08:53:48
00:00:00.000 : Глава 1
00:07:04.458 : Глава 2
00:13:39.583 : Глава 3
00:21:20.458 : Глава 4
00:27:58.041 : Глава 5
00:34:41.999 : Глава 6
00:40:47.624 : Глава 7
00:46:10.832 : Глава 8
00:51:57.873 : Глава 9
00:57:21.081 : Глава 10
01:02:44.872 : Глава 11
01:10:39.747 : Глава 12
01:16:54.455 : Глава 13
01:22:55.871 : Глава 14
01:28:47.454 : Глава 15
01:33:10.454 : Глава 16
01:38:23.079 : Глава 17
01:44:49.995 : Глава 18
Bit rate mode : VBR
x264 лог
Код:
x264 [info]: frame I:1510  Avg QP:11.52  size: 82396
x264 [info]: frame P:43922 Avg QP:14.33  size: 22852
x264 [info]: frame B:117555 Avg QP:16.66  size:  6294
x264 [info]: consecutive B-frames:  3.5%  5.2%  8.1% 60.6%  8.1% 10.4%  4.2%
x264 [info]: mb I  I16..4:  8.9% 64.2% 26.9%
x264 [info]: mb P  I16..4:  1.4%  9.3%  2.8%  P16..4: 30.3% 28.6% 17.8%  0.0%  0.0%    skip: 9.9%
x264 [info]: mb B  I16..4:  0.1%  1.0%  0.5%  B16..8: 31.3% 12.7%  3.8%  direct: 5.0%  skip:45.6%  L0:42.6% L1:42.4% BI:15.0%
x264 [info]: 8x8 transform intra:66.9% inter:61.3%
x264 [info]: coded y,uvDC,uvAC intra: 89.0% 85.6% 63.3% inter: 27.5% 19.3% 3.1%
x264 [info]: i16 v,h,dc,p: 44% 10%  4% 43%
x264 [info]: i8 v,h,dc,ddl,ddr,vr,hd,vl,hu: 14% 10%  6%  8% 12% 13% 12% 12% 13%
x264 [info]: i4 v,h,dc,ddl,ddr,vr,hd,vl,hu: 13% 10%  3%  9% 14% 14% 14% 11% 13%
x264 [info]: i8c dc,h,v,p: 42% 24% 20% 14%
x264 [info]: Weighted P-Frames: Y:2.6% UV:1.0%
x264 [info]: ref P L0: 53.7%  9.2% 16.0%  6.3%  5.0%  3.4%  3.0%  1.7%  1.7%  0.1%  0.0%
x264 [info]: ref B L0: 73.9% 11.6%  5.8%  3.1%  2.2%  1.9%  1.2%  0.4%
x264 [info]: ref B L1: 95.5%  4.5%
x264 [info]: kb/s:2198.33
Скриншоты



Релиз подготовлен для просмотра на , , , .
Для просмотра данного релиза на компьютере с ОС Windows рекомендуется использовать