Иностранец / The Foreigner (Мартин Кэмпбелл / Martin Campbell) [2017, Великобритания, Китай, США, боевик, триллер, драма, BDRip-AVC] Dub + Sub (rus)

x264/MediaInfo
---[Information] [31.12.2017 20:03:21] x264 [info]: frame I:1282 Avg QP:16.77 size: 48307
---[Information] [31.12.2017 20:03:21] x264 [info]: frame P:36252 Avg QP:18.65 size: 14236
---[Information] [31.12.2017 20:03:21] x264 [info]: frame B:126272 Avg QP:21.32 size: 3791
Общее
Уникальный идентификатор : 186150652005694358404427155785871162457 (0x8C0B4FBD943FBFC69E53CDA00C2A7C59)
Полное имя : M:\$new\The Foreigner (2017)\BDrus\The.Foreigner.2017.BDRip-AVC.RUS.stalkerok.new-team.mkv
Формат : Matroska
Версия формата : Version 4 / Version 2
Размер файла : 1,34 Гбайт
Продолжительность : 1 ч. 53 м.
Общий поток : 1687 Кбит/сек
Название фильма : The Foreigner (2017) (Rip by stalkerok)
Дата кодирования : UTC 2018-04-05 10:24:46
Программа кодирования : mkvmerge v8.6.1 ('Flying') 64bit
Библиотека кодирования : libebml v1.3.3 + libmatroska v1.4.4
Видео
Идентификатор : 1
Формат : AVC
Формат/Информация : Advanced Video Codec
Профиль формата : High@L4.1
Параметр CABAC формата : Да
Параметр ReFrames формата : 14 кадров
Идентификатор кодека : V_MPEG4/ISO/AVC
Продолжительность : 1 ч. 53 м.
Битрейт : 1237 Кбит/сек
Ширина : 1070 пикселей
Высота : 448 пикселей
Соотношение сторон : 2,40:1
Режим частоты кадров : Постоянный
Частота кадров : 23,976 (24000/1001) кадра/сек
Цветовое пространство : YUV
Субдискретизация насыщенности : 4:2:0
Битовая глубина : 8 бит
Тип развёртки : Прогрессивная
Бит/(Пиксели*Кадры) : 0.108
Размер потока : 1008 Мбайт (73%)
Заголовок : The Foreigner (2017) (Rip by stalkerok)
Библиотека кодирования : x264 core 152 r2851kMod ba24899
Настройки программы : cabac=1 / ref=14 / deblock=1:-3:-2 / analyse=0x3:0x133 / me=umh / subme=11 / psy=1 / fade_compensate=0.00 / psy_rd=1.00:0.00 / mixed_ref=1 / me_range=32 / chroma_me=1 / trellis=2 / 8x8dct=1 / cqm=0 / deadzone=21,11 / fast_pskip=0 / chroma_qp_offset=-2 / threads=12 / lookahead_threads=3 / sliced_threads=0 / nr=0 / decimate=1 / interlaced=0 / bluray_compat=0 / constrained_intra=0 / bframes=14 / b_pyramid=2 / b_adapt=2 / b_bias=0 / direct=3 / weightb=1 / open_gop=0 / weightp=2 / keyint=240 / keyint_min=23 / scenecut=40 / intra_refresh=0 / rc_lookahead=60 / rc=crf / mbtree=0 / crf=19.0000 / qcomp=0.65 / qpmin=0 / qpmax=69 / qpstep=4 / vbv_maxrate=50000 / vbv_bufsize=62500 / crf_max=0.0 / nal_hrd=none / filler=0 / ip_ratio=1.40 / pb_ratio=1.30 / aq=3:0.85 / zones=154148,163806,q=35
Default : Да
Forced : Нет
Аудио
Идентификатор : 2
Формат : AC-3
Формат/Информация : Audio Coding 3
Расширение режима : CM (complete main)
Параметр Endianness формата : Big
Идентификатор кодека : A_AC3
Продолжительность : 1 ч. 53 м.
Вид битрейта : Постоянный
Битрейт : 448 Кбит/сек
Каналы : 6 каналов
Расположение каналов : Front: L C R, Side: L R, LFE
Частота : 48,0 КГц
Частота кадров : 31,250 кадров/сек (1536 spf)
Метод сжатия : С потерями
Размер потока : 365 Мбайт (27%)
Заголовок : Dub (Blu-ray RUS)
Язык : Russian
Default : Да
Forced : Нет
Текст #1
Идентификатор : 3
Формат : UTF-8
Идентификатор кодека : S_TEXT/UTF8
Идентификатор кодека/Информация : UTF-8 Plain Text
Продолжительность : 1 ч. 13 м.
Битрейт : 0 бит/сек
Count of elements : 2
Размер потока : 35,0 байт (0%)
Заголовок : Forced
Язык : Russian
Default : Да
Forced : Нет
Текст #2
Идентификатор : 4
Формат : UTF-8
Идентификатор кодека : S_TEXT/UTF8
Идентификатор кодека/Информация : UTF-8 Plain Text
Продолжительность : 1 ч. 46 м.
Битрейт : 86 бит/сек
Count of elements : 1142
Размер потока : 67,8 Кбайт (0%)
Язык : Russian
Default : Нет
Forced : Нет
Меню
00:00:00.000 : en:Chapter 1
00:08:19.540 : en:Chapter 2
00:15:49.572 : en:Chapter 3
00:21:47.763 : en:Chapter 4
00:27:04.163 : en:Chapter 5
00:32:09.509 : en:Chapter 6
00:35:24.163 : en:Chapter 7
00:38:30.931 : en:Chapter 8
00:43:50.168 : en:Chapter 9
00:47:38.188 : en:Chapter 10
00:54:10.496 : en:Chapter 11
01:01:42.322 : en:Chapter 12
01:08:07.333 : en:Chapter 13
01:14:14.032 : en:Chapter 14
01:18:42.926 : en:Chapter 15
01:23:26.876 : en:Chapter 16
01:29:18.810 : en:Chapter 17
01:38:55.011 : en:Chapter 18
01:43:45.927 : en:Chapter 19
01:47:09.296 : en:Chapter 20
Скриншоты