Меч в камне / The Sword In The Stone (Вольфганг Райтерман) [1963, США, мультфильм, мюзикл, фэнтези, комедия, приключения, WEB-DL 1080p (Amazon)] Dub + MVO + AVO + VO + Original + Sub (Rus, Ukr, Eng)

Год выпуска: 1963
Страна: США
Жанр: мультфильм, мюзикл, фэнтези, комедия, приключения
Продолжительность: 01:19:36
Перевод 1: Профессиональный (дублированный)
Перевод 2: Профессиональный (многоголосый закадровый)
Перевод 3: Авторский (одноголосый закадровый)
Перевод 4: Любительский (одноголосый закадровый)
Русские субтитры: есть
Режиссёр: Вольфганг Райтерман
Роли озвучивали: Себастьян Сабот, Карл Свенсон, Джуниос Мэтьюз, Джинни Тайлер, Марта Вентуорф, Норман Элден, Алан Напье, Ричард Рейтерман, Роберт Рейтерман
Описание: В стародавние времена в центре Лондона появился громадный камень с замурованным в нем старинным мечом. Золотая надпись на мече гласила, что королем Англии станет тот, кто вытащит этот заколдованный меч, доказав тем самым свою особую силу и право на власть. Пока это не удавалось никому. А между тем в далекой лесной глуши жил себе 11-летний мальчик Артур, прислуживал в замке и даже не подозревал, что именно ему предначертано в будущем стать великом королем. Но это предвидел живший неподалеку волшебник Мерлин. Он и его ученый филин Архимед стали наставниками парнишки, подвергнув своего юного воспитанника всемозможным испытаниям. Его поочередно превращали в животных трех разных стихий — рыбу, белку и птицу, чтобы мог он познать правду жизни во всех ее проявлениях и понять, что не в мышцах, а в мудрости и знании и есть настоящая сила человека.
Дополнительная информация
Релиз:
За видеоряд спасибо spartanec163
Исходник The.Sword.in.the.Stone.1973.1080p.WEB-DL.DD5.1.H.264-spartanec163
В отличие от Blu-Ray картинка в WEB-DL не замылена и не убита фильтрами, и имеет первоначальный вид 4:3.
Сравнение:
Качество: WEB-DL 1080p (Amazon)
Формат: MKV
Видео: MPEG-4 AVC, 14,7 Мбит/с, 1920x1080
Аудио 1: Русский (AC3, 2 ch, 320 Кбит/с) / Дублированный
Аудио 2: Русский (AC3, 2 ch, 384 Кбит/с) / Профессиональный многоголосый (DVD Магия)
Аудио 3: Русский (AC3, 6 ch, 448 Кбит/с) / Авторский одноголосый (А.Михалев)
Аудио 4: Русский (AC3, 6 ch, 448 Кбит/с) / Авторский одноголосый (В.Дохалов)
Аудио 5: Русский (AC3, 2 ch, 192 Кбит/с) / Авторский одноголосый (Ю.Живов)
Аудио 6: Русский (AC3, 2 ch, 192 Кбит/с) / Любительский одноголосый (Неизвестный)
Аудио 7: Украинский (AC3, 2 ch, 192 Кбит/с) / Профессиональный многоголосый (K1)
Аудио 8: Английский (DTS-HD MA, 6 ch, 3311 Кбит/с)
Субтитры: Русские, английские, украинские
Подробные технические данные
Общее
Уникальный идентификатор : 238244931858135581373600605775531866166 (0xB33C4E09C242ED97A2291C5AA973F836)
Полное имя : D:\The.Sword.in.the.Stone.1973.1080p.WEB-DL.6xRus.Ukr.Eng.Subs\The.Sword.in.the.Stone.1973.1080p.WEB-DL.6xRus.Ukr.Eng.Subs.mkv
Формат : Matroska
Версия формата : Version 4 / Version 2
Размер файла : 11,2 Гбайт
Продолжительность : 1 ч. 19 м.
Режим общего битрейта : Переменный
Общий поток : 20,2 Мбит/сек
Название фильма : Меч в камне
Дата кодирования : UTC 2017-12-16 10:44:56
Программа кодирования : mkvmerge v18.0.0 ('Apricity') 32-bit
Библиотека кодирования : libebml v1.3.5 + libmatroska v1.4.8
Обложка : Yes
Attachments : cover.jpg / cover_land.jpg
Видео
Идентификатор : 1
Формат : AVC
Формат/Информация : Advanced Video Codec
Профиль формата : High@L4
Настройки формата : CABAC / 4 Ref Frames
Параметр CABAC формата : Да
Параметр RefFrames формата : 4 кадра
Идентификатор кодека : V_MPEG4/ISO/AVC
Продолжительность : 1 ч. 19 м.
Вид битрейта : Переменный
Битрейт : 14,7 Мбит/сек
Максимальный битрейт : 15,0 Мбит/сек
Ширина : 1920 пикселей
Высота : 1080 пикселей
Соотношение сторон : 16:9
Режим частоты кадров : Постоянный
Частота кадров : 23,976 (24000/1001) кадра/сек
Цветовое пространство : YUV
Субдискретизация насыщенности : 4:2:0
Битовая глубина : 8 бит
Тип развёртки : Прогрессивная
Бит/(Пиксели*Кадры) : 0.296
Размер потока : 8,18 Гбайт (73%)
Заголовок : WEB-DL 1080p (Amazon)
Библиотека кодирования : x264 core 148 r2623 d5b2374
Настройки программы : cabac=1 / ref=4 / deblock=1:-1:-1 / analyse=0x3:0x133 / me=umh / subme=9 / psy=1 / psy_rd=1.00:0.15 / mixed_ref=1 / me_range=24 / chroma_me=1 / trellis=2 / 8x8dct=1 / cqm=0 / deadzone=21,11 / fast_pskip=1 / chroma_qp_offset=-3 / threads=34 / lookahead_threads=5 / sliced_threads=0 / nr=150 / decimate=1 / interlaced=0 / bluray_compat=0 / constrained_intra=0 / bframes=8 / b_pyramid=2 / b_adapt=2 / b_bias=0 / direct=3 / weightb=1 / open_gop=0 / weightp=2 / keyint=120 / keyint_min=61 / scenecut=0 / intra_refresh=0 / rc_lookahead=120 / rc=crf / mbtree=1 / crf=18.0 / qcomp=0.60 / qpmin=0 / qpmax=69 / qpstep=4 / vbv_maxrate=15000 / vbv_bufsize=31250 / crf_max=0.0 / nal_hrd=vbr / filler=0 / ip_ratio=1.40 / aq=3:1.00
Язык : English
Default : Да
Forced : Нет
Цветовой диапазон : Limited
Основные цвета : BT.709
Характеристики трансфера : BT.709
Коэффициенты матрицы : BT.709
Аудио #1
Идентификатор : 2
Формат : AC-3
Формат/Информация : Audio Coding 3
Идентификатор кодека : A_AC3
Продолжительность : 1 ч. 19 м.
Вид битрейта : Постоянный
Битрейт : 320 Кбит/сек
Каналы : 2 канала
Расположение каналов : Front: L R
Частота : 48,0 КГц
Частота кадров : 31,250 кадров/сек (1536 SPF)
Битовая глубина : 16 бит
Метод сжатия : С потерями
Размер потока : 182 Мбайт (2%)
Заголовок : AC3 2.0 320 kbps ( Дубляж)
Язык : Russian
ServiceKind/String : Complete Main
Default : Да
Forced : Нет
Аудио #2
Идентификатор : 3
Формат : AC-3
Формат/Информация : Audio Coding 3
Идентификатор кодека : A_AC3
Продолжительность : 1 ч. 19 м.
Вид битрейта : Постоянный
Битрейт : 384 Кбит/сек
Каналы : 6 каналов
Расположение каналов : Front: L C R, Side: L R, LFE
Частота : 48,0 КГц
Частота кадров : 31,250 кадров/сек (1536 SPF)
Битовая глубина : 16 бит
Метод сжатия : С потерями
Размер потока : 219 Мбайт (2%)
Заголовок : AC3 5.1 384 kbps ( MVO, DVD-Магия)
Язык : Russian
ServiceKind/String : Complete Main
Default : Нет
Forced : Нет
Аудио #3
Идентификатор : 4
Формат : AC-3
Формат/Информация : Audio Coding 3
Идентификатор кодека : A_AC3
Продолжительность : 1 ч. 19 м.
Вид битрейта : Постоянный
Битрейт : 448 Кбит/сек
Каналы : 6 каналов
Расположение каналов : Front: L C R, Side: L R, LFE
Частота : 48,0 КГц
Частота кадров : 31,250 кадров/сек (1536 SPF)
Битовая глубина : 16 бит
Метод сжатия : С потерями
Размер потока : 255 Мбайт (2%)
Заголовок : AC3 5.1 448 kbps ( AVO, Михалев)
Язык : Russian
ServiceKind/String : Complete Main
Default : Нет
Forced : Нет
Аудио #4
Идентификатор : 5
Формат : AC-3
Формат/Информация : Audio Coding 3
Идентификатор кодека : A_AC3
Продолжительность : 1 ч. 19 м.
Вид битрейта : Постоянный
Битрейт : 448 Кбит/сек
Каналы : 6 каналов
Расположение каналов : Front: L C R, Side: L R, LFE
Частота : 48,0 КГц
Частота кадров : 31,250 кадров/сек (1536 SPF)
Битовая глубина : 16 бит
Метод сжатия : С потерями
Размер потока : 255 Мбайт (2%)
Заголовок : AC3 5.1 448 kbps ( AVO, Дохалов)
Язык : Russian
ServiceKind/String : Complete Main
Default : Нет
Forced : Нет
Аудио #5
Идентификатор : 6
Формат : AC-3
Формат/Информация : Audio Coding 3
Идентификатор кодека : A_AC3
Продолжительность : 1 ч. 19 м.
Вид битрейта : Постоянный
Битрейт : 192 Кбит/сек
Каналы : 2 канала
Расположение каналов : Front: L R
Частота : 48,0 КГц
Частота кадров : 31,250 кадров/сек (1536 SPF)
Битовая глубина : 16 бит
Метод сжатия : С потерями
Размер потока : 109 Мбайт (1%)
Заголовок : AC3 2.0 192 kbps ( AVO, Живов)
Язык : Russian
ServiceKind/String : Complete Main
Default : Нет
Forced : Нет
Аудио #6
Идентификатор : 7
Формат : AC-3
Формат/Информация : Audio Coding 3
Идентификатор кодека : A_AC3
Продолжительность : 1 ч. 19 м.
Вид битрейта : Постоянный
Битрейт : 192 Кбит/сек
Каналы : 2 канала
Расположение каналов : Front: L R
Частота : 48,0 КГц
Частота кадров : 31,250 кадров/сек (1536 SPF)
Битовая глубина : 16 бит
Метод сжатия : С потерями
Размер потока : 109 Мбайт (1%)
Заголовок : AC3 2.0 192 kbps ( Неизвестный)
Язык : Russian
ServiceKind/String : Complete Main
Default : Нет
Forced : Нет
Аудио #7
Идентификатор : 8
Формат : AC-3
Формат/Информация : Audio Coding 3
Идентификатор кодека : A_AC3
Продолжительность : 1 ч. 19 м.
Вид битрейта : Постоянный
Битрейт : 192 Кбит/сек
Каналы : 2 канала
Расположение каналов : Front: L R
Частота : 48,0 КГц
Частота кадров : 31,250 кадров/сек (1536 SPF)
Битовая глубина : 16 бит
Метод сжатия : С потерями
Размер потока : 109 Мбайт (1%)
Заголовок : AC3 2.0 192 kbps ( MVO, K1)
Язык : Ukrainian
ServiceKind/String : Complete Main
Default : Нет
Forced : Нет
Аудио #8
Идентификатор : 9
Формат : DTS
Формат/Информация : Digital Theater Systems
Профиль формата : MA / Core
Идентификатор кодека : A_DTS
Продолжительность : 1 ч. 19 м.
Вид битрейта : Переменный / Постоянный
Битрейт : 3311 Кбит/сек / 1509 Кбит/сек
Каналы : 6 каналов
Расположение каналов : Front: L C R, Side: L R, LFE
Частота : 48,0 КГц
Частота кадров : 93,750 кадра/сек (512 SPF)
Битовая глубина : 24 бит
Метод сжатия : Без потерь / Lossy
Размер потока : 1,84 Гбайт (16%)
Заголовок : DTS-HD MA 3316 kbps ( Original Blu-Ray CEE)
Язык : English
Default : Нет
Forced : Нет
Текст #1
Идентификатор : 10
Формат : UTF-8
Идентификатор кодека : S_TEXT/UTF8
Идентификатор кодека/Информация : UTF-8 Plain Text
Продолжительность : 1 ч. 19 м.
Битрейт : 87 бит/сек
ElementCount : 1104
Размер потока : 50,7 Кбайт (0%)
Заголовок : Full
Язык : Russian
Default : Нет
Forced : Нет
Текст #2
Идентификатор : 11
Формат : UTF-8
Идентификатор кодека : S_TEXT/UTF8
Идентификатор кодека/Информация : UTF-8 Plain Text
Продолжительность : 1 ч. 19 м.
Битрейт : 91 бит/сек
ElementCount : 1103
Размер потока : 53,1 Кбайт (0%)
Заголовок : Full
Язык : Ukrainian
Default : Нет
Forced : Нет
Текст #3
Идентификатор : 12
Формат : UTF-8
Идентификатор кодека : S_TEXT/UTF8
Идентификатор кодека/Информация : UTF-8 Plain Text
Продолжительность : 1 ч. 17 м.
Битрейт : 62 бит/сек
ElementCount : 1107
Размер потока : 35,6 Кбайт (0%)
Заголовок : Full
Язык : English
Default : Нет
Forced : Нет
Меню
00:00:00.000 : en:Opening Credits
00:01:40.434 : en:The Legend Of The Sword In The Stone
00:08:41.479 : en:Wart Drops In For Tea
00:12:46.849 : en:"Higitus Figitus"
00:17:00.727 : en:At Sir Ector's Castle
00:22:08.117 : en:Big News From London
00:26:59.700 : en:A Magical Education For Wart
00:30:25.531 : en:"That's What Makes The World Go Round"
00:39:09.387 : en:A Medieval Assembly Line
00:43:01.076 : en:"A Most Befuddling Thing"
00:49:13.281 : en:Meanwhile, Back At The Castle...
00:54:51.494 : en:Archimedes Takes Over Wart's Education
00:56:38.184 : en:Wart Tries His Wings
00:59:46.705 : en:Madam Mim
01:04:10.510 : en:The Duel Of The Wizards
01:10:18.127 : en:Wart Is Made A Squire
01:15:37.696 : en:King Arthur
Скриншоты