Двадцать три шага до Бейкер Стрит / 23 Paces to Baker Street (Генри Хэтэуэй / Henry Hathaway) [1956, США, триллер, детектив, BDRemux 1080p] VO (Дмитрий Есарев) + Original Eng + Sub Eng


Страна: США
Студия: 20th Century Fox Film Corporation
Жанр: триллер, детектив
Год выпуска: 1956
Продолжительность: 01:43:05
Перевод: Одноголосый закадровый -
Субтитры: английские
Оригинальная аудиодорожка: английский
Режиссер: Генри Хэтэуэй / Henry Hathaway
Композитор: Ли Харлайн / Leigh Harline
В ролях: Ван Джонсон / Van Johnson ... Phillip Hannon
Вера Майлз / Vera Miles ... Jean Lennox
Сесил Паркер / Cecil Parker ... Bob Matthews
Патриция Лаффан / Patricia Laffan ... Miss Alice MacDonald
Морис Денэм / Maurice Denham ... Inspector Grovening
Эстель Уинвуд / Estelle Winwood ... Barmaid at The Eagle
Лайам Редмонд / Liam Redmond ... Joe
Изобел Элсом / Isobel Elsom ... Lady Syrett
Мартин Бенсон / Martin Benson ... Pillings
Натали Норвик / Natalie Norwick ... Janet Murch
Теренс Марни / Terence de Marney ... Det. Sgt. Luce

Описание: Экранизация романа Филипа МакДональда.
Недавно ослепший известный американский драматург Филипп Хэннон прибывает в Лондон, чтобы сделать правки в своей пьесе, которую ставят в одном лондонском театре. Не желая быть обузой, Филипп разорвал помолвку со своей секретаршей Джин Леннокс, которая продолжает любить его и приезжает следом за ним в Лондон.
Однажды вечером в местном пабе Филипп подслушал разговор между мужчиной и женщиной, из которого он узнал о готовящемся похищении ребёнка. В полиции его рассказ снисходительно восприняли как плод буйного воображения слепого писателя. Тогда Филипп решает сам расследовать преступление. Ему помогают Джин и его преданный дворецкий Боб Мэтьюс...





БОЛЬШОЕ СПАСИБО:
Работа со звуком -
Перевод и озвучивание фильма -
Также Большое Спасибо всем, кто принял участие в появлении перевода и озвучки к этому фильму:
Магда, Lafajet, jasenka, елена 22, yanaelisa, STICK24, voostorg, Ugo927, Patsy+, sindzi, cementit, HippopotamusIV, surzhoks, борюська, Wrobel, exact


Тип релиза: BDRemux 1080p
Контейнер: MKV
Видео: AVC, 26771 kbps, 1920x1080p, 23.976 fps
Аудио 1: Russian: DTS-HD / 2.0 / 48 kHz / 1804 kbps / 16-bit (DTS Core: 2.0 / 48 kHz / 1509 kbps / 16-bit)
Аудио 2: English: DTS-HD / 2.0 / 48 kHz / 1536 kbps / 16-bit (DTS Core: 2.0 / 48 kHz / 1509 kbps / 16-bit)
Доп. информация по релизу
К ремуксу, производному от Blu-ray Kino Lorber, добавлен русский одноголосый закадровый перевод, полученный наложением чистого голоса на оригинальный трек. Сохранены главы исходного диска.
MediaInfo
Общее
Уникальный идентификатор : 183610461487876052483667791903886066198 (0x8A2216ADB7CD69079AD7BC725D2EC216)
Полное имя : K:\РАЗДАЧИ\23 Paces to Baker Street.1956.BDRemux.mkv
Формат : Matroska
Версия формата : Version 2
Размер файла : 21,9 Гбайт
Продолжительность : 1 ч. 43 м.
Режим общего битрейта : Переменный
Общий поток : 30,4 Мбит/сек
Дата кодирования : UTC 2017-10-15 12:04:08
Программа кодирования : mkvmerge v7.5.0 ('Glass Culture') 32bit built on Jan 4 2015 16:37:25
Библиотека кодирования : libebml v1.3.1 + libmatroska v1.4.2
Видео
Идентификатор : 1
Формат : AVC
Формат/Информация : Advanced Video Codec
Профиль формата : High@L4.1
Параметр CABAC формата : Да
Параметр ReFrames формата : 4 кадра
Идентификатор кодека : V_MPEG4/ISO/AVC
Продолжительность : 1 ч. 43 м.
Вид битрейта : Переменный
Битрейт : 26,8 Мбит/сек
Максимальный битрейт : 35,0 Мбит/сек
Ширина : 1920 пикселей
Высота : 1080 пикселей
Соотношение сторон : 16:9
Режим частоты кадров : Постоянный
Частота кадров : 23,976 (24000/1001) кадра/сек
Стандарт вещания : NTSC
Цветовое пространство : YUV
Субдискретизация насыщенности : 4:2:0
Битовая глубина : 8 бит
Тип развёртки : Прогрессивная
Бит/(Пиксели*Кадры) : 0.538
Размер потока : 19,3 Гбайт (88%)
Язык : Russian
Default : Да
Forced : Нет
Цветовой диапазон : Limited
Основные цвета : BT.709
Характеристики трансфера : BT.709
Коэффициенты матрицы : BT.709
Аудио #1
Идентификатор : 2
Формат : DTS
Формат/Информация : Digital Theater Systems
Профиль формата : MA / Core
Режим : 16
Параметр Endianness формата : Big
Идентификатор кодека : A_DTS
Продолжительность : 1 ч. 43 м.
Вид битрейта : Переменный / Постоянный
Битрейт : 1804 Кбит/сек / 1509 Кбит/сек
Каналы : 2 канала
Расположение каналов : Front: L R
Частота : 48,0 КГц
Частота кадров : 93,750 кадра/сек (512 spf)
Битовая глубина : 16 бит
Метод сжатия : Без потерь / Lossy
Размер потока : 1,30 Гбайт (6%)
Язык : Russian
Default : Да
Forced : Нет
Аудио #2
Идентификатор : 3
Формат : DTS
Формат/Информация : Digital Theater Systems
Профиль формата : MA / Core
Режим : 16
Параметр Endianness формата : Big
Идентификатор кодека : A_DTS
Продолжительность : 1 ч. 43 м.
Вид битрейта : Переменный / Постоянный
Битрейт : 1536 Кбит/сек / 1509 Кбит/сек
Каналы : 2 канала
Расположение каналов : Front: L R
Частота : 48,0 КГц
Частота кадров : 93,750 кадра/сек (512 spf)
Битовая глубина : 16 бит
Метод сжатия : Без потерь / Lossy
Размер потока : 1,12 Гбайт (5%)
Язык : English
Default : Нет
Forced : Нет
Аудио #3
Идентификатор : 4
Формат : AC-3
Формат/Информация : Audio Coding 3
Параметр Endianness формата : Big
Идентификатор кодека : A_AC3
Продолжительность : 1 ч. 43 м.
Вид битрейта : Постоянный
Битрейт : 256 Кбит/сек
Каналы : 2 канала
Расположение каналов : Front: L R
Частота : 48,0 КГц
Частота кадров : 31,250 кадров/сек (1536 spf)
Битовая глубина : 16 бит
Метод сжатия : С потерями
Размер потока : 189 Мбайт (1%)
Заголовок : Комментарии
Язык : English
ServiceKind/String : Complete Main
Default : Нет
Forced : Нет
Текст #1
Идентификатор : 5
Формат : UTF-8
Идентификатор кодека : S_TEXT/UTF8
Идентификатор кодека/Информация : UTF-8 Plain Text
Продолжительность : 1 ч. 40 м.
Битрейт : 70 бит/сек
ElementCount : 1329
Размер потока : 51,7 Кбайт (0%)
Язык : English
Default : Нет
Forced : Нет
Текст #2
Идентификатор : 6
Формат : PGS
Режим смешивания : zlib
Идентификатор кодека : S_HDMV/PGS
Идентификатор кодека/Информация : Picture based subtitle format used on BDs/HD-DVDs
Продолжительность : 1 ч. 40 м.
Битрейт : 15,5 Кбит/сек
ElementCount : 2589
Размер потока : 11,1 Мбайт (0%)
Язык : English
Default : Нет
Forced : Нет
Меню
00:00:00.000 : en:
00:10:10.109 : en:
00:22:57.751 : en:
00:36:45.077 : en:
00:53:09.895 : en:
01:05:32.386 : en:
01:20:55.976 : en:
01:28:18.251 : en:
Скриншоты