[TR24][OF] Bach Unlimited: Italienisches Konzert, BWV 971; Violin Partita No. 2, BWV 1004; Liszt — Fantasie und Fuge uber das Thema BACH; Francis Poulenc — Valse-Improvisation; Thomas Enhco; Albert Roussel (Lise de la Salle) 2017 (Classical)

Tracklist
01-03. J.S.Bach — Italienisches Konzert in F Major, BWV 971
04. Thomas Enhco — Chant nocturne (based on Italian Concerto)
05. Francis Poulenc — Valse-Improvisation Sur Le Nom De Bach In E Minor, Fp 62
06. Thomas Enhco — Sur la route (For Piano Four-Hands, Based On Bach)
07. Bach – Busoni — Violin Partita No. 2 in D Minor, BWV 1004: V. Chaconne
08. Thomas Enhco — La question de l'ange
09-10. Albert Roussel — Prélude et fugue in F Minor, Op. 46
11. Franz Liszt — Fantasie Und Fuge Über Das Thema Bach, S. 529/2
12. Thomas Enhco — L’aube nous verra (based on Goldberg variations)
log
foobar2000 1.3.15 / Dynamic Range Meter 1.1.1
log date: 2017-10-20 22:22:37
--------------------------------------------------------------------------------
Analyzed: Lise de la Salle / Bach Unlimited
--------------------------------------------------------------------------------
DR Peak RMS Duration Track
--------------------------------------------------------------------------------
DR12 -1.17 dB -16.59 dB 3:36 01-Italienisches Konzert in F Major, BWV 971: I.
DR11 -7.96 dB -24.12 dB 5:21 02-Italienisches Konzert in F Major, BWV 971: II. Andante
DR11 -1.89 dB -16.26 dB 3:09 03-Italienisches Konzert in F Major, BWV 971: III. Presto
DR10 -4.11 dB -19.62 dB 1:56 04-Chant nocturne
DR11 -0.10 dB -15.09 dB 1:22 05-Valse-Improvisation Sur Le Nom De Bach In E Minor, Fp 62
DR12 -2.10 dB -18.08 dB 2:07 06-Sur la route (For Piano Four-Hands, Based On Bach)
DR11 -0.10 dB -15.08 dB 14:48 07-Violin Partita No. 2 in D Minor, BWV 1004: V. Chaconne (Arr. by Ferruccio Busoni)
DR12 -0.10 dB -18.83 dB 1:48 08-La question de l'ange
DR12 -0.31 dB -14.37 dB 1:29 09-Prélude et fugue in F Minor, Op. 46: I. Prélude. Allegro vivo
DR14 -1.53 dB -21.15 dB 3:41 10-Prélude et fugue in F Major, Op. 46: II. Fugue. Allegro non troppo
DR10 -0.10 dB -14.40 dB 13:19 11-Fantasie Und Fuge Über Das Thema Bach, S. 529/2: I. Fantasie. Allegro-Adagio
DR15 -8.74 dB -31.01 dB 2:37 12-Fantasie Und Fuge Über Das Thema Bach, S. 529/2: II. Fuge
--------------------------------------------------------------------------------
Number of tracks: 12
Official DR value: DR12
Samplerate: 96000 Hz
Channels: 2
Bits per sample: 24
Bitrate: 2289 kbps
Codec: FLAC
================================================================================
range
01 Italienisches Konzert in F Major, BWV 971 I..flac