Вот оно, время убийц / Voici le temps des assassins (Жюльен Дювивье / Julien Duvivier) [1956, Франция, драма, BDRemux 1080p] [FRA Transfer] AVO (Янкелевич) + Sub (Eng, Fra) + Original (Fra)


Страна: Франция
Студия: Pathe-Consortium Cinema, CICC, Les Films Agiman, Société Nouvelle Pathé Cinéma
Жанр: драма
Год выпуска: 1956
Продолжительность: 01:54:53
Перевод: Авторский (одноголосый закадровый) - Роман Янкелевич
Субтитры: английские, французские
Оригинальная аудиодорожка: французский
Режиссер: Жюльен Дювивье / Julien Duvivier
В ролях: Жан Габен, Даниэль Делорм, Роберт Арну, Лилиан Берт, Жерар Блен, Люсьенн Богерт, Эме Кларион, Габриель Фонтан, Жермен Кержан, Робер Манюэль, Робер Пизани, Жан-Поль Руссийон, Габи Бассет, Поль Деманж, Ольга Валери, Бетти Беккерс, Джейн Морли, Жерар Фаллек, Максим Фабер, Камилла Герини, Жак Файе, Роже Саге, Катрин Фац, Альфред Гулин, Надин Базиль, Андре Филип, Лилиан Арно, Мишель Сельдов, Валери Вивин, Софи Сэйнт-Рапт, Моника Вита, Поль Барж, Жак Бертранд, Робер Блом, Рэймонд Бур, Анри Куте, Сезар, Макс Дальбан, Рене Хелл, Рене Лакур, Жан-Луи Ле Гофф, Лаура Лор, Альбер Медина, Эжен Стубер, Жорж Тат
Описание: К Андре Шатлену, держащему ресторан, приезжает девушка Катрин, которая оказывается дочерью его прежней жены, с которой он расстался еще двадцать лет назад…
Доп. информация: Найденный в сети блюр, содержащий французский оригинал и французские цветные субтитры, преобразован в ремукс, в него добавлена синхронизированная Нордером русская аудиодорога из релиза - - и английские субтитры из сети.
Сэмпл:
Тип релиза: BDRemux 1080p
Контейнер: MKV
Видео: 32100 Кбит/сек, AVC 1920*1080 (16:9), 23,976 кадра/сек, CABAC
Аудио 1: Русский, 192 Кбит/сек, 48,0 КГц, 16 бит, 2 канала, AC-3
Аудио 2: Французский, DTS MA: 2.0 / 48,0 КГц / 1225 Кбит/сек / 24 бит / (DTS Core: 2.0 / 48,0 КГц / 768 Кбит/сек / 24 бит)
Формат субтитров: softsub (SRT), PGS
MediaInfo
Общее
Уникальный идентификатор : 62345176275444609367938881607553457665 (0x2EE73E8315C0C2AB27E0D813075B1E01)
Полное имя : I:\MONAR\Художественные фильмы\Зарубежное кино\Вот оно, время убийц (1956) BDRemux 1080p.mkv
Формат : Matroska
Версия формата : Version 4 / Version 2
Размер файла : 26,9 Гбайт
Продолжительность : 1 ч. 54 м.
Режим общего битрейта : Переменный
Общий поток : 33,5 Мбит/сек
Название фильма : Voici le temps des assassins (1956)
Дата кодирования : UTC 2018-03-14 17:54:32
Программа кодирования : mkvmerge v19.0.0 ('Brave Captain') 64-bit
Библиотека кодирования : libebml v1.3.5 + libmatroska v1.4.8
Видео
Идентификатор : 1
Формат : AVC
Формат/Информация : Advanced Video Codec
Профиль формата : Main@L4.1
Настройки формата : CABAC / 4 Ref Frames
Параметр CABAC формата : Да
Параметр RefFrames формата : 4 кадра
Параметр GOP формата : M=1, N=12
Идентификатор кодека : V_MPEG4/ISO/AVC
Продолжительность : 1 ч. 54 м.
Вид битрейта : Переменный
Битрейт : 32,1 Мбит/сек
Максимальный битрейт : 39,6 Мбит/сек
Ширина : 1920 пикселей
Высота : 1080 пикселей
Соотношение сторон : 16:9
Режим частоты кадров : Постоянный
Частота кадров : 23,976 (24000/1001) кадра/сек
Цветовое пространство : YUV
Субдискретизация насыщенности : 4:2:0
Битовая глубина : 8 бит
Тип развёртки : Прогрессивная
Бит/(Пиксели*Кадры) : 0.645
Размер потока : 25,7 Гбайт (96%)
Язык : French
Default : Да
Forced : Нет
Цветовой диапазон : Limited
Основные цвета : BT.709
Характеристики трансфера : BT.709
Коэффициенты матрицы : BT.709
Аудио #1
Идентификатор : 2
Формат : AC-3
Формат/Информация : Audio Coding 3
Идентификатор кодека : A_AC3
Продолжительность : 1 ч. 54 м.
Вид битрейта : Постоянный
Битрейт : 192 Кбит/сек
Каналы : 2 канала
Расположение каналов : Front: L R
Частота : 48,0 КГц
Частота кадров : 31,250 кадров/сек (1536 SPF)
Битовая глубина : 16 бит
Метод сжатия : С потерями
Размер потока : 158 Мбайт (1%)
Заголовок : AVO
Язык : Russian
ServiceKind/String : Complete Main
Default : Да
Forced : Нет
Аудио #2
Идентификатор : 3
Формат : DTS
Формат/Информация : Digital Theater Systems
Профиль формата : MA / Core
Идентификатор кодека : A_DTS
Продолжительность : 1 ч. 54 м.
Вид битрейта : Переменный / Постоянный
Битрейт : 1225 Кбит/сек / 768 Кбит/сек
Каналы : 2 канала
Расположение каналов : Front: L R
Частота : 48,0 КГц
Частота кадров : 93,750 кадра/сек (512 SPF)
Битовая глубина : 24 бит
Метод сжатия : Без потерь / Lossy
Размер потока : 1007 Мбайт (4%)
Заголовок : original
Язык : French
Default : Нет
Forced : Нет
Текст #1
Идентификатор : 4
Формат : UTF-8
Идентификатор кодека : S_TEXT/UTF8
Идентификатор кодека/Информация : UTF-8 Plain Text
Продолжительность : 1 ч. 52 м.
Битрейт : 62 бит/сек
ElementCount : 1530
Размер потока : 51,9 Кбайт (0%)
Заголовок : srt
Язык : English
Default : Нет
Forced : Нет
Текст #2
Идентификатор : 5
Формат : PGS
Режим смешивания : zlib
Идентификатор кодека : S_HDMV/PGS
Идентификатор кодека/Информация : Picture based subtitle format used on BDs/HD-DVDs
Продолжительность : 1 ч. 53 м.
Битрейт : 39,6 Кбит/сек
ElementCount : 3309
Размер потока : 32,2 Мбайт (0%)
Заголовок : sup
Язык : French
Default : Нет
Forced : Нет
Меню
00:00:00.000 : en:Chapter 1
00:09:11.384 : en:Chapter 2
00:15:36.352 : en:Chapter 3
00:25:47.003 : en:Chapter 4
00:35:58.948 : en:Chapter 5
00:43:08.919 : en:Chapter 6
00:49:58.996 : en:Chapter 7
00:59:20.390 : en:Chapter 8
01:07:55.905 : en:Chapter 9
01:15:06.960 : en:Chapter 10
01:18:53.603 : en:Chapter 11
01:26:52.624 : en:Chapter 12
01:32:18.241 : en:Chapter 13
01:35:56.625 : en:Chapter 14
01:44:02.694 : en:Chapter 15
01:48:09.149 : en:Chapter 16
Скриншоты
История перезаливов
12.03.18 Торрент-файл перезалит. Добавлены уже синхронизированные английские субтитры из сети. Сэмпл и отчёт перезалиты.
13.03.18 Торрент-файл перезалит. Субтитры исправлены. Сэмпл и отчёт перезалиты.