Храбрец / The brave one (Ирвинг Раппер / Irving Rapper) [1956, США, драма, семейный, BDRemux 1080p] Sub Rus, Eng + Original Eng


Страна: США
Студия: King Brothers Productions
Жанр: драма, семейный
Год выпуска: 1956
Продолжительность: 01:39:48
Перевод: Субтитры - Алексей Королёв
Субтитры: русские, английские
Оригинальная аудиодорожка: английский
Режиссер: Ирвинг Раппер / Irving Rapper
В ролях: Мишель Рэй, Родольфо Ойос мл., Эльса Карденас, Карлос Наварро, Джои Лэнсинг, Фермин Ривера, Хорхе Тревино, Карлос Фернандез, Эдуардо Алькарас, Рафаэль Алькайде, Мануэль Де Ла Вега, Мигель Анхель Феррис, Паскуаль Гарсия Пенья, Беатрис Рамос, Мануэль Санчес Наварро, Мануэль Вергара «Манвер»
Описание: Мальчик-мексиканец по имени Леонардо проявляет трогательную заботу о быке, которого он спас во время шторма. Однако настоящий владелец животного намеревается подготовить его для корриды, где быка непременно убьют. Чтобы предотвратить гибель питомца, Леонардо обращается за помощью к правительству.
Доп. информация: Найденный в сети блюр преобразован в ремукс, в него добавлены синхронизированные sovsem-neduhoven русские субтитры из раздачи - . Оригинальный 6-канальный PCM-звук разложен на составляющие программой eac3to и сжат в DTS-MA программой DTS-HD Master Audio Suite Encoder. Среднее значение битрейта видео определено программой Bitrate Viewer.
Сэмпл:
Тип релиза: BDRemux 1080p
Контейнер: MKV
Видео: 19673 Кбит/сек, AVC 1920*1080 (16:9), 23,976 кадра/сек, CABAC
Аудио: Английский, DTS MA: 5.1 / 48,0 КГц / 2219 Кбит/сек / 16 бит / (DTS Core: 5.1 / 48,0 КГц / 1509 Кбит/сек / 16 бит)
Формат субтитров: softsub (SRT)
MediaInfo
Общее
Уникальный идентификатор : 165933463510765944794005693133160858251 (0x7CD59F63B478D71EB2FE239602DE428B)
Полное имя : I:\MONAR\Художественные фильмы\Зарубежное кино\Храбрец (1956) BDRemux 1080p.mkv
Формат : Matroska
Версия формата : Version 4 / Version 2
Размер файла : 15,3 Гбайт
Продолжительность : 1 ч. 39 м.
Режим общего битрейта : Переменный
Общий поток : 22,0 Мбит/сек
Название фильма : The brave one (1956)
Дата кодирования : UTC 2018-03-18 11:07:32
Программа кодирования : mkvmerge v19.0.0 ('Brave Captain') 64-bit
Библиотека кодирования : libebml v1.3.5 + libmatroska v1.4.8
Видео
Идентификатор : 1
Формат : AVC
Формат/Информация : Advanced Video Codec
Профиль формата : High@L4.1
Настройки формата : CABAC / 2 Ref Frames
Параметр CABAC формата : Да
Параметр RefFrames формата : 2 кадра
Параметр GOP формата : M=3, N=22
Идентификатор кодека : V_MPEG4/ISO/AVC
Продолжительность : 1 ч. 39 м.
Вид битрейта : Переменный
Битрейт : 19,7 Мбит/сек
Максимальный битрейт : 36,2 Мбит/сек
Ширина : 1920 пикселей
Высота : 1080 пикселей
Соотношение сторон : 16:9
Режим частоты кадров : Постоянный
Частота кадров : 23,976 (24000/1001) кадра/сек
Цветовое пространство : YUV
Субдискретизация насыщенности : 4:2:0
Битовая глубина : 8 бит
Тип развёртки : Прогрессивная
Бит/(Пиксели*Кадры) : 0.396
Размер потока : 13,7 Гбайт (90%)
Язык : English
Default : Да
Forced : Нет
Аудио
Идентификатор : 2
Формат : DTS
Формат/Информация : Digital Theater Systems
Профиль формата : MA / Core
Идентификатор кодека : A_DTS
Продолжительность : 1 ч. 39 м.
Вид битрейта : Переменный / Постоянный
Битрейт : 2291 Кбит/сек / 1509 Кбит/сек
Каналы : 6 каналов
Расположение каналов : Front: L C R, Side: L R, LFE
Частота : 48,0 КГц
Частота кадров : 93,750 кадра/сек (512 SPF)
Битовая глубина : 16 бит
Метод сжатия : Без потерь / Lossy
Размер потока : 1,60 Гбайт (10%)
Заголовок : original
Язык : English
Default : Да
Forced : Нет
Текст #1
Идентификатор : 3
Формат : UTF-8
Идентификатор кодека : S_TEXT/UTF8
Идентификатор кодека/Информация : UTF-8 Plain Text
Продолжительность : 1 ч. 39 м.
Битрейт : 60 бит/сек
ElementCount : 762
Размер потока : 44,2 Кбайт (0%)
Заголовок : srt
Язык : Russian
Default : Да
Forced : Нет
Текст #2
Идентификатор : 4
Формат : UTF-8
Идентификатор кодека : S_TEXT/UTF8
Идентификатор кодека/Информация : UTF-8 Plain Text
Продолжительность : 1 ч. 36 м.
Битрейт : 38 бит/сек
ElementCount : 922
Размер потока : 27,3 Кбайт (0%)
Заголовок : srt
Язык : English
Default : Нет
Forced : Нет
Меню
00:00:00.000 : en:Chapter 1
00:07:02.046 : en:Chapter 2
00:15:06.697 : en:Chapter 3
00:23:10.097 : en:Chapter 4
00:32:31.991 : en:Chapter 5
00:42:57.366 : en:Chapter 6
00:51:28.085 : en:Chapter 7
00:58:48.942 : en:Chapter 8
01:05:24.629 : en:Chapter 9
01:13:16.892 : en:Chapter 10
01:20:44.256 : en:Chapter 11
01:29:18.978 : en:Chapter 12
01:39:46.939 : en:Chapter 13
Скриншоты
18.03.18 Торрент-файл перезалит. Исправлены ошибки в русских и английских субтитрах.