Грубый край / Raw Edge (Джон Шервуд / John Sherwood) [1956, США, вестерн, мелодрама, BDRemux 1080p] VO (А. Мосин - Щепачев) + Sub Rus + Original Eng


Страна: США
Студия: Universal International Pictures (UI)
Жанр: вестерн, мелодрама
Год выпуска: 1956
Продолжительность: 01:16:20
Перевод: Одноголосый закадровый А. Мосин - Щепачев
Субтитры: русские Свен Железнов
Оригинальная аудиодорожка: английский
Режиссер: Джон Шервуд / John Sherwood
В ролях: Рори Кэлхун, Ивонн Де Карло, Мара Кордей, Невилл Брэнд, Рекс Ризон, Эмиль Мейер, Герберт Радли, Роберт Дж. Уилки, Джон Гэвин, Грегг Бартон ...
Описание: 1842 год. На дикой, богатой и ещё необжитой территории Орегона бушуют страсти. Мужчинам не хватает женщин и нет общих законов, кроме закона сильнейшего. Сильнейшим оказывается Джеральд Монтгомери, который устанавливает правило, по которому незамужняя женщина обязана принадлежать мужчине, первому объявившему её своей женой. Чтобы овладеть женщиной многие готовы на всё. Даже на преступление. Эта история о том, как Текс Кирби приехал во владения Монтгомери и бросил вызов варварскому обычаю.





Цитата:
Фильм переведен и озвучен специально для: 7букв Вестерн / группа Джесси Джеймса
Отдельная благодарность Alassea за предоставленную русскую звуковую дорожку и субтитры.
Тип релиза: BDRemux 1080p (Raw.Edge.1956.1080p.BluRay.REMUX.AVC.DTS-HD.MA.2.0-FGT)
Контейнер: MKV
Видео: AVC / 1920x1080 / 16:9 / 23.976 fps / 19987 Kbps / High@L4.1
Аудио 1 Rus: AC3 / 48.0 KHz / 2.0 / 192 kbps / VO / А. Мосин - Щепачев
Аудио 2 Eng: DTS-HD MA / 48.0 KHz / 2.0 / 1791kbps / 16bit (DTS Core 48.0 KHz / 2.0 / 1509kbps / 16bit)
Формат субтитров: softsub (SRT)
MediaInfo
Общее
Уникальный идентификатор : 215870143265528949840389542685320943805 (0xA26713CA06B214218DAAE46FA6A818BD)
Полное имя : E:\porvaliparus\Raw.Edge.1956.BDRemux.1080p.mkv
Формат : Matroska
Версия формата : Version 4 / Version 2
Размер файла : 11,7 Гбайт
Продолжительность : 1 ч. 16 м.
Режим общего битрейта : Переменный
Общий поток : 22,0 Мбит/сек
Название фильма : Raw.Edge.1956.BDRemux.1080p-porvaliparus
Дата кодирования : UTC 2017-07-15 02:45:45
Программа кодирования : mkvmerge v13.0.0 ('The Juggler') 64bit
Библиотека кодирования : libebml v1.3.4 + libmatroska v1.4.5
Видео
Идентификатор : 1
Формат : AVC
Формат/Информация : Advanced Video Codec
Профиль формата : High@L4.1
Параметр CABAC формата : Да
Параметр ReFrames формата : 4 кадра
Идентификатор кодека : V_MPEG4/ISO/AVC
Продолжительность : 1 ч. 16 м.
Вид битрейта : Переменный
Битрейт : 20,0 Мбит/сек
Максимальный битрейт : 35,0 Мбит/сек
Ширина : 1920 пикселей
Высота : 1080 пикселей
Соотношение сторон : 16:9
Режим частоты кадров : Постоянный
Частота кадров : 23,976 (24000/1001) кадра/сек
Стандарт вещания : NTSC
Цветовое пространство : YUV
Субдискретизация насыщенности : 4:2:0
Битовая глубина : 8 бит
Тип развёртки : Прогрессивная
Бит/(Пиксели*Кадры) : 0.402
Размер потока : 10,7 Гбайт (91%)
Заголовок : Raw.Edge.1956.BDRemux.1080p
Default : Да
Forced : Нет
Цветовой диапазон : Limited
Основные цвета : BT.709
Характеристики трансфера : BT.709
Коэффициенты матрицы : BT.709
Аудио #1
Идентификатор : 2
Формат : AC-3
Формат/Информация : Audio Coding 3
Параметр Endianness формата : Big
Идентификатор кодека : A_AC3
Продолжительность : 1 ч. 16 м.
Вид битрейта : Постоянный
Битрейт : 192 Кбит/сек
Каналы : 2 канала
Расположение каналов : Front: L R
Частота : 48,0 КГц
Частота кадров : 31,250 кадров/сек (1536 spf)
Битовая глубина : 16 бит
Метод сжатия : С потерями
Размер потока : 105 Мбайт (1%)
Заголовок : VO [А. Мосин - Щепачев]
Язык : Russian
ServiceKind/String : Complete Main
Default : Да
Forced : Нет
Аудио #2
Идентификатор : 3
Формат : DTS
Формат/Информация : Digital Theater Systems
Профиль формата : MA / Core
Режим : 16
Параметр Endianness формата : Big
Идентификатор кодека : A_DTS
Продолжительность : 1 ч. 16 м.
Вид битрейта : Переменный / Постоянный
Битрейт : 1791 Кбит/сек / 1509 Кбит/сек
Каналы : 2 канала
Расположение каналов : Front: L R
Частота : 48,0 КГц
Частота кадров : 93,750 кадра/сек (512 spf)
Битовая глубина : 16 бит
Метод сжатия : Без потерь / Lossy
Размер потока : 978 Мбайт (8%)
Язык : English
Default : Нет
Forced : Нет
Текст
Идентификатор : 4
Формат : UTF-8
Идентификатор кодека : S_TEXT/UTF8
Идентификатор кодека/Информация : UTF-8 Plain Text
Продолжительность : 1 ч. 15 м.
Битрейт : 68 бит/сек
ElementCount : 672
Размер потока : 38,0 Кбайт (0%)
Заголовок : Rus [Свен Железнов]
Язык : Russian
Default : Нет
Forced : Нет
Меню
00:00:00.000 : en:Chapter 01
00:06:40.191 : en:Chapter 02
00:12:19.613 : en:Chapter 03
00:19:07.646 : en:Chapter 04
00:24:57.120 : en:Chapter 05
00:31:52.869 : en:Chapter 06
00:39:00.421 : en:Chapter 07
00:45:20.134 : en:Chapter 08
00:50:31.903 : en:Chapter 09
00:57:00.667 : en:Chapter 10
01:03:34.894 : en:Chapter 11
01:10:02.907 : en:Chapter 12
Скриншоты