Они живут по ночам / They Live by Night (Николас Рей / Nicholas Ray) [1948, США, драма, криминал, фильм-нуар, BDRemux 1080p] [Criterion #880] Original Eng + Sub (Rus, Eng)


Год выпуска: 1948
Страна: США
Жанр: драма, криминал, фильм-нуар
Продолжительность: 01:35:43
Перевод: Субтитры
Оригинальная аудиодорожка: Английская
Субтитры: Русские (tata23), английские (полные, для слабослышащих)
Режиссер: Николас Рэй / Nicholas Ray
В ролях: Кэти О`Доннелл, Фарли Грейнджер, Ховард Да Сильва, Джей С. Флиппен, Хелен Крэйг, Уилл Райт, Мари Брайант, Йен Вульф, Уильям Фиппс, Гарри Харви
Описание:
Дебютный кинофильм режиссёра Николаса Рэя. Экранизация романа Эдварда Андерсона «Воры как мы» (другая версия была поставлена в 1974 году Робертом Олтменом).
Трое уголовников бегут из тюрьмы: один из них 23-летний Фарли Грейнджер — просидевший в тюрьме семь лет за убийство. Бандиты укрываются на заправке у одной из своих бывших знакомых, а Артур Боуерс или просто «Боуи» — в первый раз в жизни знакомится с девушкой. Когда его подельники уже готовят ограбление банка. Заполучив добычу, Арт покидает своих друзей, которые организовали побег из тюрьмы, держа путь на юг, в Мексику. Однако старые друзья не отпускают Арта, а полиция уже начинает разыскивать пару беглецов…
| |
Качество: BDRemux 1080p (They Live By Night (1948) - BD50 - Untouched - TS)
Контейнер: MKV
Видео: AVC, 1920x1080 (1.37:1), 23.976 fps, 35160 kbps
Аудио 1: Английский DTS-HD MA 1.0, 48 kHz, 1024 kbps, 24-bit (DTS Core: 1.0, 48 kHz, 768 kbps, 24-bit)
Аудио 2: Английский AC3 1.0, 48 kHz, 192 kbps — Commentary
Формат субтитров: softsub (SRT)
Скриншоты

MI
General
Unique ID : 242567744560519017961979221650862605936 (0xB67CD928D2A877D4A673B37F4E0D8670)
Complete name : They.Live.by.Night.1948.1080p.BDRemux.mkv
Format : Matroska
Format version : Version 2
File size : 24.3 GiB
Duration : 1 h 35 min
Overall bit rate mode : Variable
Overall bit rate : 36.3 Mb/s
Movie name : They Live by Night / Они живут по ночам (1948) – RuTracker
Encoded date : UTC 2017-07-12 17:55:45
Writing application : mkvmerge v12.0.0 ('Trust / Lust') 64bit
Writing library : libebml v1.3.4 + libmatroska v1.4.5
Cover : Yes
Attachments : cover.jpg
Video
ID : 1
Format : AVC
Format/Info : Advanced Video Codec
Format profile : High@L4.1
Format settings, CABAC : Yes
Format settings, ReFrames : 4 frames
Codec ID : V_MPEG4/ISO/AVC
Duration : 1 h 35 min
Bit rate mode : Variable
Bit rate : 35.1 Mb/s
Maximum bit rate : 37.0 Mb/s
Width : 1 920 pixels
Height : 1 080 pixels
Display aspect ratio : 16:9
Frame rate mode : Constant
Frame rate : 23.976 (24000/1001) FPS
Color space : YUV
Chroma subsampling : 4:2:0
Bit depth : 8 bits
Scan type : Progressive
Bits/(Pixel*Frame) : 0.706
Stream size : 23.5 GiB (97%)
Title : They Live By Night (1948) - BD50 - Untouched - TS
Language : English
Default : Yes
Forced : No
Audio #1
ID : 2
Format : DTS
Format/Info : Digital Theater Systems
Format profile : MA / Core
Mode : 16
Format settings, Endianness : Big
Codec ID : A_DTS
Duration : 1 h 35 min
Bit rate mode : Variable / Constant
Bit rate : 1 024 kb/s / 768 kb/s
Channel(s) : 1 channel
Channel positions : Front: C
Sampling rate : 48.0 kHz
Frame rate : 93.750 FPS (512 spf)
Bit depth : 24 bits
Compression mode : Lossless / Lossy
Stream size : 702 MiB (3%)
Language : English
Default : Yes
Forced : No
Audio #2
ID : 3
Format : AC-3
Format/Info : Audio Coding 3
Format settings, Endianness : Big
Codec ID : A_AC3
Duration : 1 h 35 min
Bit rate mode : Constant
Bit rate : 192 kb/s
Channel(s) : 1 channel
Channel positions : Front: C
Sampling rate : 48.0 kHz
Frame rate : 31.250 FPS (1536 spf)
Bit depth : 16 bits
Compression mode : Lossy
Stream size : 131 MiB (1%)
Title : Commentary by actor Farley Granger and film noir specialist Eddie Muller
Language : English
Service kind : Complete Main
Default : No
Forced : No
Text #1
ID : 4
Format : UTF-8
Codec ID : S_TEXT/UTF8
Codec ID/Info : UTF-8 Plain Text
Duration : 1 h 34 min
Bit rate : 106 b/s
Count of elements : 1216
Stream size : 73.9 KiB (0%)
Language : Russian
Default : Yes
Forced : No
Text #2
ID : 5
Format : UTF-8
Codec ID : S_TEXT/UTF8
Codec ID/Info : UTF-8 Plain Text
Duration : 1 h 32 min
Bit rate : 64 b/s
Count of elements : 1243
Stream size : 43.7 KiB (0%)
Language : English
Default : No
Forced : No
Text #3
ID : 6
Format : UTF-8
Codec ID : S_TEXT/UTF8
Codec ID/Info : UTF-8 Plain Text
Duration : 1 h 33 min
Bit rate : 67 b/s
Count of elements : 1325
Stream size : 46.3 KiB (0%)
Title : SDH
Language : English
Default : No
Forced : No
Menu
00:00:00.000 : en:01. On the run
00:03:20.283 : en:02. Picked up
00:05:32.666 : en:03. Hiding and plotting
00:10:22.622 : en:04. A tough time
00:13:14.836 : en:05. Jailbait
00:19:15.654 : en:06. Bad luck
00:26:06.774 : en:07. Traveling too fast
00:31:33.225 : en:08. A gift
00:37:06.141 : en:09. In the papers
00:41:24.774 : en:10. Getting hitched
00:47:12.329 : en:11. Learning together
00:52:06.915 : en:12. Squealer
00:53:39.883 : en:13. Good dog
00:55:15.938 : en:14. Back to work
01:02:15.732 : en:15. Better off alone
01:05:25.296 : en:16. Merry Christmas
01:09:13.775 : en:17. Big dreams
01:12:08.324 : en:18. A good time
01:17:39.822 : en:19. Recognized
01:19:32.851 : en:20. Detour
01:24:05.123 : en:21. Responsibilities
01:27:43.967 : en:22. No hope
01:29:40.000 : en:23. One last time