Лезвие бритвы / На краю лезвия / The Razor's Edge (Эдмунд Гулдинг / Edmund Goulding) [1946, США, драма, BDRemux 1080p] MVO (Светла) + DVO (РЕН ТВ) + Original Eng + Sub Eng


Год выпуска: 1946
Страна: США
Жанр: драма
Продолжительность: 02:24:57
Перевод 1: Профессиональный (многоголосый закадровый) Светла
Перевод 2: Профессиональный (двухголосый закадровый) РЕН ТВ
Оригинальная аудиодорожка: Английская
Субтитры: Английские (полные, для слабослышащих)
Режиссер: Эдмунд Гулдинг / Edmund Goulding
В ролях: Тайрон Пауэр, Джин Тирни, Джон Пейн, Энн Бакстер, Клифтон Уэбб, Херберт Маршалл, Люсиль Уотсон, Фрэнк Латимор, Эльза Ланчестер, Фриц Кортнер
Описание:
По роману Уильяма Сомерсета Моэма.
Начало двадцатых годов прошлого века. Обеспеченный молодой человек по имени Лэрри Даррелл в одночасье разрывает свои отношения с близкими людьми и, раздумав жениться на своей давней подруге Изабель, решает искать смысл жизни в путешествиях в дальние страны. Поиски просвещения приводят его в Гималаи. Насытившись впечатлениями, герой решает вернуться в родные пенаты, но он и не предполагает, что его возвращение сродни шагам по лезвию бритвы…
В этом «Оскароносном» фильме за взаимоотношениями персонажей, страстей и натур отчетливо проступает художественно-философский анализ «вечных» тем мировой литературы: смысла жизни, назначение искусства, любви и смерти. Постоянно возвращаясь к проблеме сравнительной ценности нравственного и прекрасного, режиссер Эдмунд Гулдинг, как и сам Моэм в каждом случае, хотя и по-разному, отдаёт предпочтение первому. Моэм писал о своём романе, - «…больше всего красоты заключено в прекрасно прожитой жизни. Это – самое высокое произведение искусства». Жизнь Ларри Даррелла, главного персонажа итогового для Моэма романа «Лезвие бритвы» – художественное воплощение этой высшей формы красоты. В 1944 году роман «Лезвие бритвы» критика единодушно объявила «высочайшим достижениям британской романистики». Великий прозаик, драматург и публицист, классик английской литературы ХХ столетия – Уильям Сомерсет Моэм в тридцатые годы был «мировым рекордсменом» по суммам гонораров.
За Светлу спасибо bazil-mclaud, за РЕН ТВ – palmeiras.
| |
Качество: BDRemux 1080p (The.Razors.Edge.1946.COMPLETE.BLURAY-CiNEMATiC)
Контейнер: MKV
Видео: AVC, 1920x1080 (1.33:1), 23.976 fps, 37215 kbps
Аудио 1: Русский AC3 2.0, 48 kHz, 192 kbps — Светла
Аудио 2: Русский AC3 2.0, 48 kHz, 192 kbps — РЕН ТВ
Аудио 3: Английский DTS-HD MA 1.0, 48 kHz, 1089 kbps, 24-bit (DTS Core: 1.0, 48 kHz, 768 kbps, 24-bit)
Аудио 4: Английкий AC3 1.0, 48 kHz, 192 kbps — Комментарии
Формат субтитров: softsub (SRT)
Скриншоты

MI
General
Unique ID : 171798574846871199577189080278169713737 (0x813F33B44F64176F81EF211C2C1A7C49)
Complete name : The.Razor's.Edge.1946.1080p.BDRemux.mkv
Format : Matroska
Format version : Version 2
File size : 39.1 GiB
Duration : 2 h 24 min
Overall bit rate mode : Variable
Overall bit rate : 38.6 Mb/s
Movie name : The Razor's Edge / На краю лезвия (1946) – RuTracker
Encoded date : UTC 2017-06-07 19:44:10
Writing application : mkvmerge v12.0.0 ('Trust / Lust') 64bit
Writing library : libebml v1.3.4 + libmatroska v1.4.5
Cover : Yes
Attachments : cover.jpg
Video
ID : 1
Format : AVC
Format/Info : Advanced Video Codec
Format profile : High@L4.1
Format settings, CABAC : Yes
Format settings, ReFrames : 4 frames
Codec ID : V_MPEG4/ISO/AVC
Duration : 2 h 24 min
Bit rate mode : Variable
Bit rate : 37.0 Mb/s
Maximum bit rate : 40.0 Mb/s
Width : 1 920 pixels
Height : 1 080 pixels
Display aspect ratio : 16:9
Frame rate mode : Constant
Frame rate : 23.976 (24000/1001) FPS
Color space : YUV
Chroma subsampling : 4:2:0
Bit depth : 8 bits
Scan type : Progressive
Bits/(Pixel*Frame) : 0.744
Stream size : 37.4 GiB (96%)
Title : The.Razors.Edge.1946.COMPLETE.BLURAY-CiNEMATiC
Language : English
Default : Yes
Forced : No
Audio #1
ID : 2
Format : AC-3
Format/Info : Audio Coding 3
Format settings, Endianness : Big
Codec ID : A_AC3
Duration : 2 h 24 min
Bit rate mode : Constant
Bit rate : 192 kb/s
Channel(s) : 2 channels
Channel positions : Front: L R
Sampling rate : 48.0 kHz
Frame rate : 31.250 FPS (1536 spf)
Bit depth : 16 bits
Compression mode : Lossy
Stream size : 199 MiB (0%)
Title : MVO – Светла
Language : Russian
Service kind : Complete Main
Default : Yes
Forced : No
Audio #2
ID : 3
Format : AC-3
Format/Info : Audio Coding 3
Format settings, Endianness : Big
Codec ID : A_AC3
Duration : 2 h 24 min
Bit rate mode : Constant
Bit rate : 192 kb/s
Channel(s) : 2 channels
Channel positions : Front: L R
Sampling rate : 48.0 kHz
Frame rate : 31.250 FPS (1536 spf)
Bit depth : 16 bits
Compression mode : Lossy
Stream size : 199 MiB (0%)
Title : DVO – РенТВ
Language : Russian
Service kind : Complete Main
Default : No
Forced : No
Audio #3
ID : 4
Format : DTS
Format/Info : Digital Theater Systems
Format profile : MA / Core
Mode : 16
Format settings, Endianness : Big
Codec ID : A_DTS
Duration : 2 h 24 min
Bit rate mode : Variable / Constant
Bit rate : 1 089 kb/s / 768 kb/s
Channel(s) : 1 channel
Channel positions : Front: C
Sampling rate : 48.0 kHz
Frame rate : 93.750 FPS (512 spf)
Bit depth : 24 bits
Compression mode : Lossless / Lossy
Stream size : 1.10 GiB (3%)
Title : Original
Language : English
Default : No
Forced : No
Audio #4
ID : 5
Format : AC-3
Format/Info : Audio Coding 3
Format settings, Endianness : Big
Codec ID : A_AC3
Duration : 2 h 24 min
Bit rate mode : Constant
Bit rate : 192 kb/s
Channel(s) : 1 channel
Channel positions : Front: C
Sampling rate : 48.0 kHz
Frame rate : 31.250 FPS (1536 spf)
Bit depth : 16 bits
Compression mode : Lossy
Stream size : 199 MiB (0%)
Title : Commentary by Anthony Slide and Robert Birchard
Language : English
Service kind : Complete Main
Default : No
Forced : No
Text #1
ID : 6
Format : UTF-8
Codec ID : S_TEXT/UTF8
Codec ID/Info : UTF-8 Plain Text
Duration : 2 h 22 min
Bit rate : 76 b/s
Count of elements : 1889
Stream size : 79.3 KiB (0%)
Language : English
Default : No
Forced : No
Text #2
ID : 7
Format : UTF-8
Codec ID : S_TEXT/UTF8
Codec ID/Info : UTF-8 Plain Text
Duration : 2 h 22 min
Bit rate : 79 b/s
Count of elements : 2012
Stream size : 83.2 KiB (0%)
Title : SDH
Language : English
Default : No
Forced : No
Menu
00:00:00.000 : en:01. Main Titles
00:01:34.511 : en:02. Dinner Party
00:08:06.486 : en:03. Ripples
00:11:23.683 : en:04. Survivor Guilt
00:18:22.434 : en:05. Checklist
00:22:06.700 : en:06. A Visit to Paris
00:26:37.596 : en:07. Asking Too Much
00:31:37.228 : en:08. Last Fling
00:41:08.883 : en:09. The Inevitable
00:45:59.089 : en:10. Running from God
00:51:58.156 : en:11. Razor's Edge
00:57:11.094 : en:12. Tragic Accident
01:00:34.881 : en:13. Infinite Beauty
01:07:13.696 : en:14. Catching Up
01:13:01.293 : en:15. Healing Powers
01:21:04.901 : en:16. Slumming
01:29:51.427 : en:17. Lapsed Purity
01:32:30.336 : en:18. Phone Call
01:34:39.882 : en:19. Noble Sacrifice
01:40:01.370 : en:20. At the Ritz
01:44:30.597 : en:21. Temptation
01:51:11.206 : en:22. The Search
01:56:47.250 : en:23. Sophie's Death
02:03:04.377 : en:24. Slighted
02:07:15.878 : en:25. RSVP Regrets
02:13:04.601 : en:26. Second Chances
02:18:49.321 : en:27. Awful Truth
02:22:37.632 : en:28. End Titles/Goodness