[SACD-R][OF] Richard Wagner - Tristan und Isolde; Overtures to 'Das Liebesverbot' & 'Die Feen' - Neeme Jarvi - Royal Scottish National Orchestra - 2011 (Classical)


Формат записи/Источник записи: [SACD-R][OF]
Наличие водяных знаков: Нет
Год издания/переиздания диска: 2011
Жанр: Classical
Издатель (лейбл): Chandos - CHSA 5087
Продолжительность: 01:10:53 + 01:10:53
Наличие сканов в содержимом раздачи: Только обложка альбома
Контейнер: ISO (*.iso)
Тип рипа: image
Разрядность: 64(2,8 MHz/1 Bit)
Формат: DST64
Количество каналов: 2.0; 5.0
Треклист:
Richard Wagner (1813-1883)
Overture to 'Das Liebesverbot' (8:15)
1. Molto vivace - Allegro con fuoco - Presto
Overture to 'Die Feen' (10:48)
2. Adagio - Un poco meno adagio - Tempo I - Allegro con molto fuoco - Più allegro
Tristan und Isolde, an orchestral passion (51:31)
Arranged 1994 by Henk de Vlieger (b. 1953)
3. 1-Einleitung. Langsam und schmachtend - 6:41
4. 2-Isoldes Liebesverlangen. Sehr lebhaft - Immer belebter - Ruhiger und allmählich immer langsamer - 8:12
5. 3-Nachtgesang. Mäßig langsam - Breiter - Wieder mäßig langsam - Erstes Tempo - Immer mehr belebend - Immer belebter -
Lebhaft, mit Steigerung - Sehr lebhaft und schnell - Sehr drängend - Immer etwas drängend - Noch drängender -
Sehr schnell - Immer sehr schnell - Etwas mäßiger - Allmählich etwas langsamer - Mäßig bewegt - 15:43
6. 4-Vorspiel und Reigen. Mäßig langsam - 5:31
7. 5-Tristans Vision. [Mäßig langsam] - Sehr ruhig und nicht schleppend - Immer breiter - Breit - 4:00
8. 6-Das Wiedersehen. Etwas lebhafter - Allmählich immer mehr belebend - Sehr lebhaft -
Noch schneller - Noch mehr beschleunigend - Früheres Zeitmaß - Sehr lebhaft -
Sehr allmählich nachlessend im Zeitmaß - Sehr langsam - Langsam - 5:55
9. 7-Isoldes Liebestod. Sehr mäßig beginnend - Etwas bewegter - 5:27
DR Log
foobar2000 1.3.14 / Dynamic Range Meter 1.1.1
log date: 2017-05-03 18:40:32
--------------------------------------------------------------------------------
Analyzed: Royal Scottish National Orchestra conducted by Neeme Jдrvi / Wagner : Tristan und Isolde - An Orchestral Passion
--------------------------------------------------------------------------------
DR Peak RMS Duration Track
--------------------------------------------------------------------------------
DR13 -6.63 dB -27.01 dB 8:16 01-Overture to 'Das Liebesverbot'
DR14 -7.17 dB -30.37 dB 10:48 02-Overture to 'Die Feen'
DR15 -6.19 dB -32.10 dB 6:41 03-Tristan und Isolde, an orchestral passion. 1. Einleitung
DR14 -6.86 dB -31.87 dB 8:13 04-Tristan und Isolde. 2. Isoldes Liebesverlangen
DR17 -6.19 dB -32.98 dB 15:43 05-Tristan und Isolde, an orchestral passion. 3. Nachtgesang
DR14 -16.27 dB -40.01 dB 5:31 06-Tristan und Isolde. 4. Vorspiel und Reigen
DR12 -19.41 dB -41.36 dB 4:00 07-Tristan und Isolde, an orchestral passion. 5. Tristans Vision
DR13 -7.05 dB -30.22 dB 5:55 08-Tristan und Isolde, an orchestral passion. 6. Das Wiedesehen
DR15 -9.43 dB -34.03 dB 5:30 09-Tristan und Isolde, an orchestral passion. 7. Isoldes Liebestod
--------------------------------------------------------------------------------
Number of tracks: 9
Official DR value: DR14
Samplerate: 2822400 Hz / PCM Samplerate: 88200 Hz
Channels: 5
Bits per sample: 1
Bitrate: 14112 kbps
Codec: DST64
================================================================================
--------------------------------------------------------------------------------
Analyzed: Royal Scottish National Orchestra conducted by Neeme Jдrvi / Wagner : Tristan und Isolde - An Orchestral Passion
--------------------------------------------------------------------------------
DR Peak RMS Duration Track
--------------------------------------------------------------------------------
DR13 -5.92 dB -23.17 dB 8:16 01-Overture to 'Das Liebesverbot'
DR15 -6.15 dB -26.37 dB 10:48 02-Overture to 'Die Feen'
DR14 -7.38 dB -29.36 dB 6:41 03-Tristan und Isolde, an orchestral passion. 1. Einleitung
DR15 -6.15 dB -29.20 dB 8:13 04-Tristan und Isolde. 2. Isoldes Liebesverlangen
DR17 -5.97 dB -30.07 dB 15:43 05-Tristan und Isolde, an orchestral passion. 3. Nachtgesang
DR14 -15.48 dB -36.94 dB 5:31 06-Tristan und Isolde. 4. Vorspiel und Reigen
DR13 -18.83 dB -37.40 dB 4:00 07-Tristan und Isolde, an orchestral passion. 5. Tristans Vision
DR14 -6.80 dB -26.42 dB 5:55 08-Tristan und Isolde, an orchestral passion. 6. Das Wiedesehen
DR15 -8.41 dB -30.05 dB 5:30 09-Tristan und Isolde, an orchestral passion. 7. Isoldes Liebestod
--------------------------------------------------------------------------------
Number of tracks: 9
Official DR value: DR14
Samplerate: 2822400 Hz / PCM Samplerate: 88200 Hz
Channels: 2
Bits per sample: 1
Bitrate: 5645 kbps
Codec: DST64
================================================================================
Доп. информация: Recorded at Royal Concert Hall, Glasgow 16 and 17 February 2010.
DSD recording.
Источник (релизер): SACD rip via PS3 to iso (PS³SACD)