Извините, ошиблись номером / Sorry, Wrong Number (Анатоль Литвак / Anatole Litvak) [1948, США, фильм-нуар, триллер, драма, WEB-DL 1080p] MVO + Original Eng + Sub Eng


Год выпуска: 1948
Страна: США
Жанр: фильм-нуар, триллер, драма
Продолжительность: 01:28:40
Перевод: Профессиональный (многоголосый закадровый)
Оригинальная аудиодорожка: Английская
Субтитры: Английские (полные, для слабослышащих)
Режиссер: Анатоль Литвак / Anatole Litvak
В ролях: Барбара Стэнвик, Бёрт Ланкастер, Уенделл Кори, Гарольд Вермилеа, Эд Бегли, Энн Ричардс, Лейф Эриксон, Уильям Конрад (I), Джон Бромфилд, Джимми Хант, Дороти Ньюманн, Пол Фиерро
Описание:
По мотивам одноименной пьесы Люсиль Флетчер.
Леона Стевенсон (Барбара Стэнвик) - очаровательная и богатая молодая леди, однако она больна и прикована к постели, отчего страдает ипохондрией. Однажды ночью, ожидая возвращения мужа, она поднимает трубку и случайно подслушивает беседу между двумя мужчинами, планирующими убийство. Отчаяние охватывает ее, поскольку она не может угадать, кто жертва и предотвратить преступление.
За дорожку спасибо Balrog.10.6. Отдельное спасибо Ugo927 за помощь.
| |
Качество: WEB-DL 1080p (SbR)
Контейнер: MKV
Видео: AVC (x264), 1920x1080 (1.33:1), 23.976 fps, 14770 kbps
Аудио 1: Русский AC3 2.0, 48 kHz, 192 kbps
Аудио 2: Английский AC3 2.0, 48 kHz, 192 kbps
Скриншоты
Web-DL 1080p vs



MI
General
Unique ID : 249817738705460621375424887792933273525 (0xBBF12577ED6320B18BCC2CD840CBFFB5)
Complete name : Sorry.Wrong.Number.1948.1080p.WEB-DL.DD2.0.H.264-SbR.mkv
Format : Matroska
Format version : Version 2
File size : 9.39 GiB
Duration : 1 h 28 min
Overall bit rate mode : Variable
Overall bit rate : 15.2 Mb/s
Movie name : Sorry, Wrong Number / Извините, ошиблись номером (1948) – RuTracker
Encoded date : UTC 2017-03-26 19:54:53
Writing application : mkvmerge v10.0.0 ('To Drown In You') 64bit
Writing library : libebml v1.3.4 + libmatroska v1.4.5
Cover : Yes
Attachments : cover.jpg
Video
ID : 1
Format : AVC
Format/Info : Advanced Video Codec
Format profile : High@L4
Format settings, CABAC : Yes
Format settings, ReFrames : 4 frames
Codec ID : V_MPEG4/ISO/AVC
Duration : 1 h 28 min
Bit rate mode : Variable
Bit rate : 14.8 Mb/s
Maximum bit rate : 15.0 Mb/s
Width : 1 920 pixels
Height : 1 080 pixels
Display aspect ratio : 16:9
Frame rate mode : Constant
Frame rate : 23.976 (24000/1001) FPS
Color space : YUV
Chroma subsampling : 4:2:0
Bit depth : 8 bits
Scan type : Progressive
Bits/(Pixel*Frame) : 0.297
Stream size : 9.15 GiB (97%)
Title : Sorry.Wrong.Number.1948.1080p.WEB-DL.DD2.0.H.264-SbR
Writing library : x264 core 148 r2623 d5b2374
Encoding settings : cabac=1 / ref=4 / deblock=1:-1:-1 / analyse=0x3:0x133 / me=umh / subme=9 / psy=1 / psy_rd=1.00:0.15 / mixed_ref=1 / me_range=24 / chroma_me=1 / trellis=2 / 8x8dct=1 / cqm=0 / deadzone=21,11 / fast_pskip=1 / chroma_qp_offset=-3 / threads=34 / lookahead_threads=5 / sliced_threads=0 / nr=150 / decimate=1 / interlaced=0 / bluray_compat=0 / constrained_intra=0 / bframes=8 / b_pyramid=2 / b_adapt=2 / b_bias=0 / direct=3 / weightb=1 / open_gop=0 / weightp=2 / keyint=120 / keyint_min=61 / scenecut=0 / intra_refresh=0 / rc_lookahead=120 / rc=crf / mbtree=1 / crf=18.0 / qcomp=0.60 / qpmin=0 / qpmax=69 / qpstep=4 / vbv_maxrate=15000 / vbv_bufsize=31250 / crf_max=0.0 / nal_hrd=vbr / filler=0 / ip_ratio=1.40 / aq=3:1.00
Language : English
Default : Yes
Forced : No
Color range : Limited
Color primaries : BT.709
Transfer characteristics : BT.709
Matrix coefficients : BT.709
Audio #1
ID : 2
Format : AC-3
Format/Info : Audio Coding 3
Format settings, Endianness : Big
Codec ID : A_AC3
Duration : 1 h 28 min
Bit rate mode : Constant
Bit rate : 192 kb/s
Channel(s) : 2 channels
Channel positions : Front: L R
Sampling rate : 48.0 kHz
Frame rate : 31.250 FPS (1536 spf)
Bit depth : 16 bits
Compression mode : Lossy
Stream size : 122 MiB (1%)
Title : MVO
Language : Russian
Service kind : Complete Main
Default : Yes
Forced : No
Audio #2
ID : 3
Format : AC-3
Format/Info : Audio Coding 3
Format settings, Endianness : Big
Codec ID : A_AC3
Duration : 1 h 28 min
Bit rate mode : Constant
Bit rate : 192 kb/s
Channel(s) : 2 channels
Channel positions : Front: L R
Sampling rate : 48.0 kHz
Frame rate : 31.250 FPS (1536 spf)
Bit depth : 16 bits
Compression mode : Lossy
Stream size : 122 MiB (1%)
Title : Original
Language : English
Service kind : Complete Main
Default : No
Forced : No
Text #1
ID : 4
Format : UTF-8
Codec ID : S_TEXT/UTF8
Codec ID/Info : UTF-8 Plain Text
Duration : 1 h 26 min
Bit rate : 101 b/s
Count of elements : 1376
Stream size : 63.8 KiB (0%)
Language : English
Default : No
Forced : No
Text #2
ID : 5
Format : UTF-8
Codec ID : S_TEXT/UTF8
Codec ID/Info : UTF-8 Plain Text
Duration : 1 h 27 min
Bit rate : 106 b/s
Count of elements : 1421
Stream size : 68.3 KiB (0%)
Title : SDH
Language : English
Default : No
Forced : No
Menu
00:00:00.000 : en:1. Crossed Wires
00:09:00.308 : en:2. "Chicago Is Calling"
00:10:56.591 : en:3. A Cat out of the Bag
00:16:24.693 : en:4. Cutting in on Sally Hunt
00:22:41.236 : en:5. Getting What She Wants
00:30:55.056 : en:6. The D.A.'s Investigation
00:42:55.984 : en:7. Family Connections
00:47:06.652 : en:8. Doctor Alexander's Diagnosis
01:01:48.065 : en:9. True Facts From Waldo Evans
01:11:29.079 : en:10. Bowery 2-1000
01:20:51.266 : en:11. Henry's I.O.U. Comes Due