(Classical) Cesar Franck · Piano Quintet, Claude Debussy · String Quartet (Marc-André [Andre] Hamelin, Takács [Takacs] Quartet) · 2016, FLAC (tracks+.cue) lossless


Жанр: classical
Страна-производитель релиза: UK
Год издания релиза: 2016
Издатель: hyperion
Номер по каталогу:
Дата записи: май 2015
Аудиокодек: FLAC
Тип рипа: tracks+.cue
Битрейт аудио: lossless
Продолжительность: 01:02:23
Источник: PTH.me
Буклет в раздаче есть
Исполнители: Marc-André Hamelin (1–3), Takács Quartet
Треклист:
César Franck · Piano Quintet in F minor, M7
01. Molto moderato quasi lento – Allegro (16:28)
02. Lento, con molto sentimento (11:08)
03. Allegro non troppo ma con fuoco (9:38)
Claude Debussy · String Quartet in G minor, L91, op. 10
04. Animé et très décidé (6:18)
05. Assez vif et bien rythmé (4:03)
06. Andantino, doucement expressif (7:26)
07. Très modéré (7:23)
Лог создания рипа
X Lossless Decoder version 20161007 (149.3)
XLD extraction logfile from 2017-02-07 17:50:46 +0100
Takács Quartet / Franck: Piano Quintet; Debussy: String Quartet
Used drive : HL-DT-ST DVDRAM GH22NS50 (revision TN03)
Media type : Pressed CD
Ripper mode : XLD Secure Ripper
Disable audio cache : OK for the drive with a cache less than 1375KiB
Make use of C2 pointers : NO
Read offset correction : 667
Max retry count : 20
Gap status : Analyzed, Appended (except HTOA)
TOC of the extracted CD
Track | Start | Length | Start sector | End sector
---------------------------------------------------------
1 | 00:00:00 | 16:28:30 | 0 | 74129
2 | 16:28:30 | 11:07:68 | 74130 | 124222
3 | 27:36:23 | 09:37:54 | 124223 | 167551
4 | 37:14:02 | 06:17:68 | 167552 | 195894
5 | 43:31:70 | 04:02:54 | 195895 | 214098
6 | 47:34:49 | 07:25:64 | 214099 | 247537
7 | 55:00:38 | 07:22:58 | 247538 | 280745
AccurateRip Summary (DiscID: 0013e677-00716ed5-5e0e9f07)
Track 01 : OK (v2, confidence 3/3)
Track 02 : OK (v2, confidence 3/3)
Track 03 : OK (v2, confidence 3/3)
Track 04 : OK (v2, confidence 3/3)
Track 05 : OK (v2, confidence 3/3)
Track 06 : OK (v2, confidence 3/3)
Track 07 : OK (v2, confidence 3/3)
->All tracks accurately ripped.
All Tracks
Album gain : 1.29 dB
Peak : 0.974701
Statistics
Read error : 0
Jitter error (maybe fixed) : 0
Retry sector count : 0
Damaged sector count : 0
Track 01
Filename : /Users/Rip/Takács Quartet - Franck- Piano Quintet; Debussy- String Quartet (2016) [FLAC]/01 Piano Quintet in F minor, M7- Molto moderato quasi lento – Allegro.flac
/Users/Rip/Takács Quartet - Franck- Piano Quintet; Debussy- String Quartet (2016) [MP3 320]/01 Piano Quintet in F minor, M7- Molto moderato quasi lento – Allegro.mp3
/Users/Rip/Takács Quartet - Franck- Piano Quintet; Debussy- String Quartet (2016) [MP3 V0]/01 Piano Quintet in F minor, M7- Molto moderato quasi lento – Allegro.mp3
Pre-gap length : 00:02:00
Track gain : -0.13 dB
Peak : 0.974701
CRC32 hash (test run) : A4145D3F
CRC32 hash : A4145D3F
CRC32 hash (skip zero) : 186889EE
AccurateRip v1 signature : 45C8519E
AccurateRip v2 signature : C582CAB5
->Accurately ripped (v2, confidence 3/3)
Statistics
Read error : 0
Jitter error (maybe fixed) : 0
Retry sector count : 0
Damaged sector count : 0
Track 02
Filename : /Users/Rip/Takács Quartet - Franck- Piano Quintet; Debussy- String Quartet (2016) [FLAC]/02 Piano Quintet in F minor, M7- Lento, con molto sentimento.flac
/Users/Rip/Takács Quartet - Franck- Piano Quintet; Debussy- String Quartet (2016) [MP3 320]/02 Piano Quintet in F minor, M7- Lento, con molto sentimento.mp3
/Users/Rip/Takács Quartet - Franck- Piano Quintet; Debussy- String Quartet (2016) [MP3 V0]/02 Piano Quintet in F minor, M7- Lento, con molto sentimento.mp3
Pre-gap length : 00:03:17
Track gain : 4.39 dB
Peak : 0.697540
CRC32 hash (test run) : 93F72BBE
CRC32 hash : 93F72BBE
CRC32 hash (skip zero) : EE8C103E
AccurateRip v1 signature : CC7D6409
AccurateRip v2 signature : E15A1EEF
->Accurately ripped (v2, confidence 3/3)
Statistics
Read error : 0
Jitter error (maybe fixed) : 0
Retry sector count : 0
Damaged sector count : 0
Track 03
Filename : /Users/Rip/Takács Quartet - Franck- Piano Quintet; Debussy- String Quartet (2016) [FLAC]/03 Piano Quintet in F minor, M7- Allegro non troppo ma con fuoco.flac
/Users/Rip/Takács Quartet - Franck- Piano Quintet; Debussy- String Quartet (2016) [MP3 320]/03 Piano Quintet in F minor, M7- Allegro non troppo ma con fuoco.mp3
/Users/Rip/Takács Quartet - Franck- Piano Quintet; Debussy- String Quartet (2016) [MP3 V0]/03 Piano Quintet in F minor, M7- Allegro non troppo ma con fuoco.mp3
Pre-gap length : 00:01:07
Track gain : 0.06 dB
Peak : 0.788635
CRC32 hash (test run) : 492C9535
CRC32 hash : 492C9535
CRC32 hash (skip zero) : A0ABC5BC
AccurateRip v1 signature : 594469EC
AccurateRip v2 signature : BAB02B6C
->Accurately ripped (v2, confidence 3/3)
Statistics
Read error : 0
Jitter error (maybe fixed) : 0
Retry sector count : 0
Damaged sector count : 0
Track 04
Filename : /Users/Rip/Takács Quartet - Franck- Piano Quintet; Debussy- String Quartet (2016) [FLAC]/04 String Quartet in G minor, L91, op. 10- Animé et très décidé.flac
/Users/Rip/Takács Quartet - Franck- Piano Quintet; Debussy- String Quartet (2016) [MP3 320]/04 String Quartet in G minor, L91, op. 10- Animé et très décidé.mp3
/Users/Rip/Takács Quartet - Franck- Piano Quintet; Debussy- String Quartet (2016) [MP3 V0]/04 String Quartet in G minor, L91, op. 10- Animé et très décidé.mp3
Pre-gap length : 00:06:22
Track gain : 3.37 dB
Peak : 0.604309
CRC32 hash (test run) : C049AEFB
CRC32 hash : C049AEFB
CRC32 hash (skip zero) : 13A04E50
AccurateRip v1 signature : 9129362E
AccurateRip v2 signature : 00031591
->Accurately ripped (v2, confidence 3/3)
Statistics
Read error : 0
Jitter error (maybe fixed) : 0
Retry sector count : 0
Damaged sector count : 0
Track 05
Filename : /Users/Rip/Takács Quartet - Franck- Piano Quintet; Debussy- String Quartet (2016) [FLAC]/05 String Quartet in G minor, L91, op. 10- Assez vif et bien rythmé.flac
/Users/Rip/Takács Quartet - Franck- Piano Quintet; Debussy- String Quartet (2016) [MP3 320]/05 String Quartet in G minor, L91, op. 10- Assez vif et bien rythmé.mp3
/Users/Rip/Takács Quartet - Franck- Piano Quintet; Debussy- String Quartet (2016) [MP3 V0]/05 String Quartet in G minor, L91, op. 10- Assez vif et bien rythmé.mp3
Pre-gap length : 00:00:46
Track gain : 6.35 dB
Peak : 0.434784
CRC32 hash (test run) : B9C004C6
CRC32 hash : B9C004C6
CRC32 hash (skip zero) : EB89030B
AccurateRip v1 signature : 3F13ED71
AccurateRip v2 signature : 58E0DD9A
->Accurately ripped (v2, confidence 3/3)
Statistics
Read error : 0
Jitter error (maybe fixed) : 0
Retry sector count : 0
Damaged sector count : 0
Track 06
Filename : /Users/Rip/Takács Quartet - Franck- Piano Quintet; Debussy- String Quartet (2016) [FLAC]/06 String Quartet in G minor, L91, op. 10- Andantino, doucement expressif.flac
/Users/Rip/Takács Quartet - Franck- Piano Quintet; Debussy- String Quartet (2016) [MP3 320]/06 String Quartet in G minor, L91, op. 10- Andantino, doucement expressif.mp3
/Users/Rip/Takács Quartet - Franck- Piano Quintet; Debussy- String Quartet (2016) [MP3 V0]/06 String Quartet in G minor, L91, op. 10- Andantino, doucement expressif.mp3
Pre-gap length : 00:02:58
Track gain : 10.05 dB
Peak : 0.428650
CRC32 hash (test run) : 44C9E7CE
CRC32 hash : 44C9E7CE
CRC32 hash (skip zero) : 356FF0C9
AccurateRip v1 signature : F4AE57F0
AccurateRip v2 signature : 693BBC0E
->Accurately ripped (v2, confidence 3/3)
Statistics
Read error : 0
Jitter error (maybe fixed) : 0
Retry sector count : 0
Damaged sector count : 0
Track 07
Filename : /Users/Rip/Takács Quartet - Franck- Piano Quintet; Debussy- String Quartet (2016) [FLAC]/07 String Quartet in G minor, L91, op. 10- Très modéré.flac
/Users/Rip/Takács Quartet - Franck- Piano Quintet; Debussy- String Quartet (2016) [MP3 320]/07 String Quartet in G minor, L91, op. 10- Très modéré.mp3
/Users/Rip/Takács Quartet - Franck- Piano Quintet; Debussy- String Quartet (2016) [MP3 V0]/07 String Quartet in G minor, L91, op. 10- Très modéré.mp3
Pre-gap length : 00:01:72
Track gain : 4.13 dB
Peak : 0.514587
CRC32 hash (test run) : 31A576C3
CRC32 hash : 31A576C3
CRC32 hash (skip zero) : 7D9FB7E0
AccurateRip v1 signature : 375E734D
AccurateRip v2 signature : 01BAAD35
->Accurately ripped (v2, confidence 3/3)
Statistics
Read error : 0
Jitter error (maybe fixed) : 0
Retry sector count : 0
Damaged sector count : 0
No errors occurred
End of status report
-----BEGIN XLD SIGNATURE-----
Ebl4pMg8dm3bIKPTW9vy9fw91HmrI4iwbd5fpvZTymXqTy6bm99mkPtd5VgVwN1NhlFM.Q23c2bMNufpio4xeMzfwAcwHOyofU6ySJS
-----END XLD SIGNATURE-----
Содержание индексной карты (.CUE)
TITLE "Piano Quintet (Franck), String Quartet (Debussy)"
PERFORMER "Takács Quartet"
CATALOG 0034571280615
REM DATE "2016"
REM DISCID 5E0E9F07
REM REPLAYGAIN_ALBUM_GAIN 1.29 dB
REM REPLAYGAIN_ALBUM_PEAK 0.974701
FILE "01. Piano Quintet in F minor, M7. Molto moderato quasi lento – Allegro.flac" WAVE
TRACK 01 AUDIO
TITLE "Piano Quintet in F minor, M7: Molto moderato quasi lento – Allegro"
PERFORMER "Marc-André Hamelin, Takács Quartet"
ISRC GBAJY1606101
REM REPLAYGAIN_TRACK_GAIN -0.13 dB
REM REPLAYGAIN_TRACK_PEAK 0.974701
INDEX 01 00:00:00
TRACK 02 AUDIO
TITLE "Piano Quintet in F minor, M7: Lento, con molto sentimento"
PERFORMER "Marc-André Hamelin, Takács Quartet"
ISRC GBAJY1606102
REM REPLAYGAIN_TRACK_GAIN 4.39 dB
REM REPLAYGAIN_TRACK_PEAK 0.697540
INDEX 00 16:25:13
FILE "02. Piano Quintet in F minor, M7. Lento, con molto sentimento.flac" WAVE
INDEX 01 00:00:00
TRACK 03 AUDIO
TITLE "Piano Quintet in F minor, M7: Allegro non troppo ma con fuoco"
PERFORMER "Marc-André Hamelin, Takács Quartet"
ISRC GBAJY1606103
REM REPLAYGAIN_TRACK_GAIN 0.06 dB
REM REPLAYGAIN_TRACK_PEAK 0.788635
INDEX 00 11:06:61
FILE "03. Piano Quintet in F minor, M7. Allegro non troppo ma con fuoco.flac" WAVE
INDEX 01 00:00:00
TRACK 04 AUDIO
TITLE "String Quartet in G minor, L91, op. 10: Animé et très décidé"
PERFORMER "Takács Quartet"
ISRC GBAJY1606104
REM REPLAYGAIN_TRACK_GAIN 3.37 dB
REM REPLAYGAIN_TRACK_PEAK 0.604309
INDEX 00 09:31:32
FILE "04. String Quartet in G minor, L91, op. 10. Animé et très décidé.flac" WAVE
INDEX 01 00:00:00
TRACK 05 AUDIO
TITLE "String Quartet in G minor, L91, op. 10: Assez vif et bien rythmé"
PERFORMER "Takács Quartet"
ISRC GBAJY1606105
REM REPLAYGAIN_TRACK_GAIN 6.35 dB
REM REPLAYGAIN_TRACK_PEAK 0.434784
INDEX 00 06:17:22
FILE "05. String Quartet in G minor, L91, op. 10. Assez vif et bien rythmé.flac" WAVE
INDEX 01 00:00:00
TRACK 06 AUDIO
TITLE "String Quartet in G minor, L91, op. 10: Andantino, doucement expressif"
PERFORMER "Takács Quartet"
ISRC GBAJY1606106
REM REPLAYGAIN_TRACK_GAIN 10.05 dB
REM REPLAYGAIN_TRACK_PEAK 0.428650
INDEX 00 03:59:71
FILE "06. String Quartet in G minor, L91, op. 10. Andantino, doucement expressif.flac" WAVE
INDEX 01 00:00:00
TRACK 07 AUDIO
TITLE "String Quartet in G minor, L91, op. 10: Très modéré"
PERFORMER "Takács Quartet"
ISRC GBAJY1606107
REM REPLAYGAIN_TRACK_GAIN 4.13 dB
REM REPLAYGAIN_TRACK_PEAK 0.514587
INDEX 00 07:23:67
FILE "07. String Quartet in G minor, L91, op. 10. Très modéré.flac" WAVE
INDEX 01 00:00:00