Двое на качелях / Two for the seesaw (Роберт Уайз / Robert Wise) [1962, США, драма, BDRemux 1080p] AVO (А. Кашкин) + Sub Eng + Original Eng


Страна: США
Студия: Argyle Productions, Mirisch Corporation, The, Seesaw Productions
Жанр: драма
Год выпуска: 1962
Продолжительность: 01:59:19
Перевод: Авторский (одноголосый закадровый) А. Кашкин
Субтитры: английские (DVD)
Оригинальная аудиодорожка: английский
Режиссер: Роберт Уайз / Robert Wise
В ролях: Роберт Митчум, Ширли МакЛейн, Эдмон Райан, Элизабет Фрайзер, Эдди Файрстоун, Билли Грэй, Кен Бери, Колин Кэмпбелл, Ширли Ситрон, Киа Дэйв и др.
Описание: Джерри — адвокат из Небраски, приехавший по делам в Нью-Йорк и совершенно не похожий на среднего жителя Большого Яблока. Гиттель — типичная представительница нью-йоркской богемы, занимающаяся танцами. На одной из вечеринок Джерри встречает ее, узнаёт номер телефона и звонит Гиттель с предложением встретиться. В Небраске у Джерри осталась жена, с которой он ведет процесс развода, а у Гиттель нет денег и она больна какой-то желудочной болезнью. Эти столь разные люди остаются жить и решать свои проблемы вместе, но неизвестно, есть ли у их отношений будущее.
II II II
Тип релиза: BDRemux 1080p
Контейнер: MKV
Видео: AVC / 1920x1080 / 16:9 / 23.976fps / 21950Kbps / High@L4.1
Аудио 1: AC3 / 48.0 KHz / 2ch. / 192kbps / Rus / AVO / А. Кашкин
Аудио 2: DTS-HD MA / 48.0 KHz / 2ch / 1591kbps / 16bit (DTS Core 48.0 KHz / 2ch / 1509kbps / 16bit) Eng
Формат субтитров: softsub (SRT)
MediaInfo
Общее
Уникальный идентификатор : 247926410114741575939508934227074550926 (0xBA84E3C4FB2117D7875EA41A84FD0C8E)
Полное имя : G:\!!!_torrent\Two.For.The.Seesaw.1962.BDRemux.1080p_by_vedigo.mkv
Формат : Matroska
Версия формата : Version 4 / Version 2
Размер файла : 19,8 Гбайт
Продолжительность : 1 ч. 59 м.
Режим общего битрейта : Переменный
Общий поток : 23,8 Мбит/сек
Название фильма : Two.For.The.Seesaw.1962.BDremux.1080p_by_vedigo
Дата кодирования : UTC 2017-02-01 08:26:35
Программа кодирования : mkvmerge v9.8.0 ('Kuglblids') 64bit
Библиотека кодирования : libebml v1.3.4 + libmatroska v1.4.5
Видео
Идентификатор : 1
Формат : AVC
Формат/Информация : Advanced Video Codec
Профиль формата : High@L4.1
Параметр CABAC формата : Да
Параметр ReFrames формата : 4 кадра
Идентификатор кодека : V_MPEG4/ISO/AVC
Продолжительность : 1 ч. 59 м.
Вид битрейта : Переменный
Битрейт : 22,0 Мбит/сек
Максимальный битрейт : 35,0 Мбит/сек
Ширина : 1920 пикселей
Высота : 1080 пикселей
Соотношение сторон : 16:9
Режим частоты кадров : Постоянный
Частота кадров : 23,976 (24000/1001) кадра/сек
Стандарт вещания : NTSC
Цветовое пространство : YUV
Субдискретизация насыщенности : 4:2:0
Битовая глубина : 8 бит
Тип развёртки : Прогрессивная
Бит/(Пиксели*Кадры) : 0.442
Размер потока : 18,3 Гбайт (92%)
Заголовок : Two.For.The.Seesaw.1962.BDremux.1080p_by_vedigo
Default : Да
Forced : Нет
Цветовой диапазон : Limited
Основные цвета : BT.709
Характеристики трансфера : BT.709
Коэффициенты матрицы : BT.709
Аудио #1
Идентификатор : 2
Формат : AC-3
Формат/Информация : Audio Coding 3
Расширение режима : CM (complete main)
Параметр Endianness формата : Big
Идентификатор кодека : A_AC3
Продолжительность : 1 ч. 59 м.
Вид битрейта : Постоянный
Битрейт : 192 Кбит/сек
Каналы : 2 канала
Расположение каналов : Front: L R
Частота : 48,0 КГц
Частота кадров : 31,250 кадров/сек (1536 spf)
Битовая глубина : 16 бит
Метод сжатия : С потерями
Размер потока : 164 Мбайт (1%)
Заголовок : AVO @ А. Кашкин
Язык : Russian
Default : Да
Forced : Нет
Аудио #2
Идентификатор : 3
Формат : DTS
Формат/Информация : Digital Theater Systems
Профиль формата : MA / Core
Режим : 16
Параметр Endianness формата : Big
Идентификатор кодека : A_DTS
Продолжительность : 1 ч. 59 м.
Вид битрейта : Переменный / Постоянный
Битрейт : 1591 Кбит/сек / 1509 Кбит/сек
Каналы : 2 канала
Расположение каналов : Front: L R
Частота : 48,0 КГц
Частота кадров : 93,750 кадра/сек (512 spf)
Битовая глубина : 16 бит
Метод сжатия : Без потерь / Lossy
Размер потока : 1,33 Гбайт (7%)
Заголовок : Original
Язык : English
Default : Нет
Forced : Нет
Текст
Идентификатор : 4
Формат : UTF-8
Идентификатор кодека : S_TEXT/UTF8
Идентификатор кодека/Информация : UTF-8 Plain Text
Продолжительность : 1 ч. 58 м.
Битрейт : 66 бит/сек
Count of elements : 1277
Размер потока : 58,3 Кбайт (0%)
Заголовок : Subtitle eng
Язык : English
Default : Нет
Forced : Нет
Меню
00:00:00.000 : :Глава 02
00:14:49.763 : :Глава 02
00:34:00.455 : :Глава 03
00:46:40.797 : :Глава 04
01:03:38.147 : :Глава 05
01:14:47.399 : :Глава 06
01:31:51.756 : :Глава 07
01:41:57.820 : :Глава 08
Скриншоты

Сведения об исходнике
Disc Title: Two.for.the.Seesaw.1962.COMPLETE.BLURAY-watchHD
Disc Size: 23 494 422 751 bytes
Protection: AACS
BD-Java: No
BDInfo: 0.5.8
PLAYLIST REPORT:
Name: 00004.MPLS
Length: 1:59:30.163 (h:m:s.ms)
Size: 22 279 981 056 bytes
Total Bitrate: 24,86 Mbps
VIDEO:
Codec Bitrate Description
----- ------- -----------
MPEG-4 AVC Video 21950 kbps 1080p / 23,976 fps / 16:9 / High Profile 4.1
AUDIO:
Codec Language Bitrate Description
----- -------- ------- -----------
DTS-HD Master Audio English 1588 kbps 2.0 / 48 kHz / 1588 kbps / 16-bit (DTS Core: 2.0 / 48 kHz / 1509 kbps / 16-bit)