Soft Machine - Alive In Paris 1970. [2008, Psychedelic Rock / Jazz Fusion, DVDRip]

Жанр: Psychedelic Rock / Jazz Fusion
Продолжительность: 01:00:36
Год выпуска: 2008
Описание: В фильме представлено выступление легендарной английской группы Soft Machine в Theatre de la Musique, Париж, Франция, 2 марта 1970 года.
SOFT MACHINE — английская группа, пионеры кентербери, джаз-фьюжна, психоделического и прогрессивного рока.
Группа названа в честь книги Уильяма Берроуза. The Soft Machine.
Soft Machine основана в 1966 году Робертом Уайеттом (ударные, вокал) и Кевином Эйерсом (бас-гитара, вокал), игравшими ранее в группе Wilde Flowers, а так же Дэвидом Алленом (гитары) и Майком Рэтледжем (клавишные) игравшими в Daevid Allen Trio.
Группа по праву считается одним из центральных образований кентерберрийской сцены. За время существования Soft Machine множество раз меняли свой состав, вследствие чего через эту группу прошло огромное количество известнейших музыкантов.

( со слов автора исходного релиза Japan 08 )
Треклист:
Facelift
Eamonn Andrews
Backwards/Mousetrap Reprise
Out-Bloody-Rageous
Robert Wyatt
Esther's Nosejob

Доп. информация: по видео
скрытый текст
File: Soft Machine-Alive in Paris 1970.avi
Filesize: 754.74 Mb ( 791 398 964 bytes )
Play length: 01:00:36.959 (90924 frames)
Subtitles: Not Present
Video: 640x480 (1.33:1), 25 fps, XviD build 63 ~1599 kbps avg, 0.21 bit/pixel
Audio: 48 kHz, MPEG Layer 3, 2 ch, ~128.00 kbps avg
Полное имя Soft Machine-Alive in Paris 1970.avi
Формат : AVI
Формат/Информация : Audio Video Interleave
Размер файла : 755 Мбайт
Продолжительность : 1 ч. 0 м.
Общий поток : 1741 Кбит/сек
Программа кодирования : Lavf51.12.1
Видео
Идентификатор : 0
Формат : xvid
Идентификатор кодека : xvid
Продолжительность : 1 ч. 0 м.
Битрейт : 1600 Кбит/сек
Ширина : 640 пикселей
Высота : 480 пикселей
Соотношение сторон : 4:3
Частота кадров : 25,000 кадров/сек
Бит/(Пиксели*Кадры) : 0.208
Размер потока : 694 Мбайт (92%)
Аудио
Идентификатор : 1
Формат : MPEG Audio
Версия формата : Version 1
Профиль формата : Layer 3
Режим : Joint stereo
Расширение режима : MS Stereo
Идентификатор кодека : 55
Идентификатор кодека/Подсказка : MP3
Продолжительность : 1 ч. 0 м.
Вид битрейта : Постоянный
Битрейт : 128 Кбит/сек
Каналы : 2 канала
Частота : 48,0 КГц
Метод сжатия : С потерями
Размер потока : 55,5 Мбайт (7%)
Выравнивание : Соединение по промежуткам
Продолжительность промежутка : 24 мс. (0,60 видеокадр)
Время предзагрузки промежутка : 24 мс.
Библиотека кодирования : LAME3.97
Источник: собственный рип
Cсылка
Качество: DVDRip
Контейнер: AVI
Видео кодек: XviD
Аудио кодек: MP3
Видео: 640x480 (1.33:1), 25 fps, XviD build 63 ~1599 kbps avg, 0.21 bit/pixel
Аудио: 48 kHz, MPEG Layer 3, 2 ch, ~128.00 kbps avg
Скриншоты
Мои другие раздачи 1 -
Мои другие раздачи 2- Приятного просмотра!