Ангел-истребитель / Ангел истребления / El ángel exterminador / The Exterminating Angel (Луис Бунюэль / Luis Bunuel) [1962, Мексика, драма, BDRemux 1080p] [Criterion #459] 2x MVO (Cinema Prestige, Культура) + Original Spa + Sub (Rus, Eng)


Год выпуска: 1962
Страна: Мексика
Жанр: драма
Продолжительность: 01:33:25
Перевод 1: Профессиональный (многоголосый закадровый) Cinema Prestige / TV21
Перевод 2: Профессиональный (многоголосый закадровый) ГТРК "Культура"
Оригинальная аудиодорожка: Испанская
Субтитры: Русские (Cinema Prestige), английские
Режиссер: Луис Бунюэль / Luis Bunuel
В ролях: Сильвия Пиналь, Энрике Рамбаль, Клаудио Брук, Хосе Бавьера, Аугусто Бенедико, Жаклин Андере
Описание:
После роскошного званого ужина гости вдруг обнаруживают, что — в силу каких-то таинственных причин — не могут выйти из столовой. Проходит день, другой, и множества тщательно выстроенных фасадов и поз — как не бывало. Исчезают без следа понятия о приличиях, обусловленных положением в обществе, люди опускаются до примитивного животного состояния…
За русские дорожки спасибо petelin и sergtor09.
| |
Качество: BDRemux 1080p (The.Exterminating.Angel.1962.COMPLETE.BLURAY-SUPERSIZE)
Контейнер: MKV
Видео: AVC (x264), 1920x1080 (1.33:1), 23.976 fps, 34989 kbps
Аудио 1: Русский AC3 2.0, 48 kHz, 192 kbps — Cinema Prestige / TV21
Аудио 2: Русский AC3 2.0, 48 kHz, 192 kbps — ГТРК "Культура"
Аудио 3: Испанский DTS-HD MA 1.0, 48 kHz, 690 kbps, 24-bit (DTS Core: 1.0, 48 kHz, 384 kbps, 24-bit)
Скриншоты

MI
General
Unique ID : 181303923142483562854769716943651846377 (0x8865DD8EE2829A9180CB5608C1CFB8E9)
Complete name : El.angel.exterminador.1962.1080p.BDRemux.mkv
Format : Matroska
Format version : Version 2
File size : 23.5 GiB
Duration : 1 h 33 min
Overall bit rate mode : Variable
Overall bit rate : 36.1 Mb/s
Movie name : El ángel exterminador / Ангел-истребитель (1962) – RuTracker
Encoded date : UTC 2017-01-09 20:37:51
Writing application : mkvmerge v9.7.1 ('Pandemonium') 64bit
Writing library : libebml v1.3.4 + libmatroska v1.4.5
Cover : Yes
Attachments : cover.jpg
Video
ID : 1
Format : AVC
Format/Info : Advanced Video Codec
Format profile : High@L4.1
Format settings, CABAC : Yes
Format settings, ReFrames : 4 frames
Codec ID : V_MPEG4/ISO/AVC
Duration : 1 h 33 min
Bit rate mode : Variable
Bit rate : 35.0 Mb/s
Maximum bit rate : 37.0 Mb/s
Width : 1 920 pixels
Height : 1 080 pixels
Display aspect ratio : 16:9
Frame rate mode : Constant
Frame rate : 23.976 (24000/1001) FPS
Color space : YUV
Chroma subsampling : 4:2:0
Bit depth : 8 bits
Scan type : Progressive
Bits/(Pixel*Frame) : 0.704
Stream size : 22.8 GiB (97%)
Title : The.Exterminating.Angel.1962.COMPLETE.BLURAY-SUPERSIZE
Language : Spanish
Default : Yes
Forced : No
Audio #1
ID : 2
Format : AC-3
Format/Info : Audio Coding 3
Mode extension : CM (complete main)
Format settings, Endianness : Big
Codec ID : A_AC3
Duration : 1 h 33 min
Bit rate mode : Constant
Bit rate : 192 kb/s
Channel(s) : 2 channels
Channel positions : Front: L R
Sampling rate : 48.0 kHz
Frame rate : 31.250 FPS (1536 spf)
Compression mode : Lossy
Stream size : 128 MiB (1%)
Title : MVO – Cinema Prestige / TV21
Language : Russian
Default : Yes
Forced : No
Audio #2
ID : 3
Format : AC-3
Format/Info : Audio Coding 3
Mode extension : CM (complete main)
Format settings, Endianness : Big
Codec ID : A_AC3
Duration : 1 h 33 min
Bit rate mode : Constant
Bit rate : 192 kb/s
Channel(s) : 2 channels
Channel positions : Front: L R
Sampling rate : 48.0 kHz
Frame rate : 31.250 FPS (1536 spf)
Compression mode : Lossy
Stream size : 128 MiB (1%)
Title : MVO – ГТРК "Культура"
Language : Russian
Default : No
Forced : No
Audio #3
ID : 4
Format : DTS
Format/Info : Digital Theater Systems
Format profile : MA / Core
Mode : 16
Format settings, Endianness : Big
Codec ID : A_DTS
Duration : 1 h 33 min
Bit rate mode : Variable / Constant
Bit rate : 690 kb/s / 384 kb/s
Channel(s) : 1 channel
Channel positions : Front: C
Sampling rate : 48.0 kHz
Frame rate : 93.750 FPS (512 spf)
Bit depth : 24 bits
Compression mode : Lossless / Lossy
Stream size : 461 MiB (2%)
Title : Original
Language : Spanish
Default : No
Forced : No
Text #1
ID : 5
Format : UTF-8
Codec ID : S_TEXT/UTF8
Codec ID/Info : UTF-8 Plain Text
Duration : 1 h 31 min
Bit rate : 74 b/s
Count of elements : 925
Stream size : 50.1 KiB (0%)
Title : Cinema Prestige
Language : Russian
Default : No
Forced : No
Text #2
ID : 6
Format : UTF-8
Codec ID : S_TEXT/UTF8
Codec ID/Info : UTF-8 Plain Text
Duration : 1 h 31 min
Bit rate : 49 b/s
Count of elements : 1039
Stream size : 33.2 KiB (0%)
Title : Criterion
Language : English
Default : No
Forced : No
Menu
00:00:00.000 : en:01. Short-staffed
00:08:02.107 : en:02. First course
00:11:24.434 : en:03. The guests
00:16:20.897 : en:04. Overstayed welcome
00:23:46.842 : en:05. Morning
00:27:30.983 : en:06. Trapped
00:32:36.454 : en:07. Need for action
00:40:06.070 : en:08. Second night
00:43:46.207 : en:09. Survival
00:54:09.872 : en:10. Unbearable circumstances
00:59:14.092 : en:11. The hand
01:02:18.193 : en:12. More challenges
01:07:49.691 : en:13. Sacrifices
01:12:15.665 : en:14. Chaos
01:16:22.536 : en:15. “Every man for himself”
01:20:25.279 : en:16. Solution
01:28:07.949 : en:17. Freedom
01:29:23.066 : en:18. Something wrong
01:32:10.066 : en:19. Repeat