[SACD-R][OF] Wagner - Die Walkure (Valery Gergiev / Валерий Гергиев, Мариинский / Mariinsky Orchestra) - 2012 (Classical; Opera)


Формат записи/Источник записи: [SACD-R][OF]
Наличие водяных знаков: Нет
Год издания/переиздания диска: 2012
Жанр: Classical; Opera
Издатель(лейбл): Mariinsky
Продолжительность: 03:56:37
Наличие сканов в содержимом раздачи: Буклет PDF
Valery Gergiev Musical director & conductor
Mariinsky Orchestra
Jonas Kaufmann - Siegmund
Mikhail Petrenko - Hunding
René Pape - Wotan
Anja KAmpe - Sieglinde
Nina Stemme - Brünnhilde
Ekaterina Gubanova - Fricka
Zhanna Dombrovskaya - Gerhilde
Irina Vasilieva - Ortlinde
Natalia Evstafieva - Waltraute
Lyudmila Kanunnikova - Schwertleite
Tatiana Kravtsova - Helmwige
Ekaterina Sergeeva - Siegrune
Anna Kiknadze - Grimgerde
Elena Vitman - Roßweiße
Контейнер: ISO (*.iso)
Тип рипа: image
Разрядность: 64(2,8 MHz/1 Bit)
Формат: DST64
Количество каналов: 5.0; 2.0
Треклист
Disc1
Act One
01. Act I i. Vorspiel und Erste Szene // Valery Gergiev, Mariinsky Orchestra
02. Act I ii. Wes' Herd dies auch sei // Valery Gergiev, Jonas Kaufmann, Anja Kampe, Mariinsky Orchestra
03. Act I iii. Einen Unseligen labtest du // Valery Gergiev, Jonas Kaufmann, Anja Kampe, Mariinsky Orchestra
04. Act I iv. Zweite Szene: Mud' am Herd fand ich den Mann // Valery Gergiev, Anja Kampe, Mikhail Petrenko, Jonas Kaufmann, Mariinsky Orchestra
05. Act I v. Friedmund darf ich nict heissen // Valery Gergiev, Jonas Kaufmann, Mikhail Petrenko, Anja Kampe, Mariinsky Orchestra
06. Act I vi. Die so leidig Los dir beschied // Valery Gergiev, Mikhail Petrenko, Anja Kampe, Jonas Kaufmann, Mariinsky Orchestra
07. Act I vii. Ich weiss ein wildes Geschlecht // Valery Gergiev, Mikhail Petrenko, Mariinsky Orchestra
08. Act I viii. Dritte Szene: Ein Schwert verhiess mir der Vater // Valery Gergiev, Jonas Kaufmann, Mariinsky Orchestra
09. Act I ix. Schlafst du, Gast? // Valery Gergiev, Anja Kampe, Jonas Kaufmann, Mariinsky Orchestra
10. Act I x. Wintersturme wichen dem Wonnemond // Valery Gergiev, Jonas Kaufmann, Mariinsky Orchestra
11. Act I xi. Du bist der Lenz // Valery Gergiev, Anja Kampe, Mariinsky Orchestra
12. Act I xii. O susseste Wonne! // Valery Gergiev, Jonas Kaufmann, Anja Kampe, Mariinsky Orchestra
13. Act I xiii. Siegmund heiss' ich // Valery Gergiev, Jonas Kaufmann, Anja Kampe, Mariinsky Orchestra
Disc2
Act Two
01. Act II i. Vorspiel und Erste Szene - Nun zaume dein Ross // Valery Gergiev, Rene Pape, Mariinsky Orchestra
02. Act II ii. Hojotoho! // Valery Gergiev, Nina Stemme, Mariinsky Orchestra
03. Act II iii. Der alte Sturm, die alte Muh'! // Valery Gergiev, Rene Pape, Ekaterina Gubanova, Mariinsky Orchestra
04. Act II iv. Heut' - hast du's erlebt! // Valery Gergiev, Rene Pape, Ekaterina Gubanova, Mariinsky Orchestra
05. Act II v. Nichts lerntest du // Valery Gergiev, Rene Pape, Ekaterina Gubanova, Mariinsky Orchestra
06. Act II vi. Was verlangst du? // Valery Gergiev, Rene Pape, Ekaterina Gubanova, Nina Stemme, Mariinsky Orchestra
07. Act II vii. Deiner ew'gen Gattin heilige Ehre // Valery Gergiev, Ekaterina Gubanova, Rene Pape, Mariinsky Orchestra
08. Act II viii. Zweite Szene: Schlimm, furcht ich // Valery Gergiev, Nina Stemme, Rene Pape, Mariinsky Orchestra
09. Act II ix. Ein Andres ist's: achte es wohl // Valery Gergiev, Rene Pape, Nina Stemme, Mariinsky Orchestra
10. Act II x. So nimmst du von Siegmund den Sieg? // Valery Gergiev, Nina Stemme, Rene Pape, Mariinsky Orchestra
11. Act II xi. So nimm meinen Segen, Niblungen-Sohn! // Valery Gergiev, Rene Pape, Nina Stemme, Mariinsky Orchestra
Disc3
Act Two (conclusion)
01. Act II xii. Schwer wiegt mir der Waffen Wucht! // Valery Gergiev, Nina Stemme, Mariinsky Orchestra
02. Act II xiii. Dritte Szene: Raste nun hier, gonne dir Ruh'! // Valery Gergiev, Jonas Kaufmann, Anja Kampe, Mariinsky Orchestra
03. Act II xiv. Wo bist du, Siegmund? // Valery Gergiev, Anja Kampe, Jonas Kaufmann, Mariinsky Orchestra
04. Act II xv. Vierte Szene: Siegmund! Sieh auf mich! // Valery Gergiev, Nina Stemme, Jonas Kaufmann, Mariinsky Orchestra
05. Act II xvi. Du sahst der Walkure sehrenden Blick // Valery Gergiev, Nina Stemme, Jonas Kaufmann, Mariinsky Orchestra
06. Act II xvii. So jung un schon erschimmerst du mir // Valery Gergiev, Jonas Kaufmann, Nina Stemme, Mariinsky Orchestra
07. Act II xviii. Funfte Szene: Zauberfest bezahmt ein Schlaf // Valery Gergiev, Jonas Kaufmann, Mariinsky Orchestra
08. Act II xix. Der dort mich ruft // Valery Gergiev, Jonas Kaufmann, Anja Kampe, Mikhail Petrenko, Nina Stemme, Rene Pape, Mariinsky Orchestra
09. Act II xx. Zu Ross! dass ich dich rette! // Valery Gergiev, Nina Stemme, Rene Pape, Mariinsky Orchestra
Disc4
Act Three
01. Act III i. Vorspiel und Erste Szene: Hojotoho! Hojotoho! // Valery Gergiev, Mariinsky Orchestra & Soloists
02. Act III ii. Zu Ortlinde's Stute stell' deinen Hengst // Valery Gergiev, Mariinsky Orchestra & Soloists
03. Act III iii. Schutzt mich und helft in hochster Not! // Valery Gergiev, Nina Stemme, Mariinsky Orchestra & Soloists
04. Act III iv. Nicht sehre dich Sorge um mich // Valery Gergiev, Anja Kampe, Nina Stemme, Rene Pape, Mariinsky Orchestra & Soloists
05. Act III v. Zweite Szene: Wo ist Brunnhild // Valery Gergiev, Rene Pape, Mariinsky Orchestra & Soloists
06. Act III vi. Hier bin ich, Vater // Valery Gergiev, Nina Stemme, Rene Pape, Mariinsky Orchestra & Soloists
07. Act III vii. Dritte Szene: War es so schmahlich // Valery Gergiev, Nina Stemme, Rene Pape, Mariinsky Orchestra
08. Act III viii. So tatest du, was so gern zu tun ich begehrt // Valery Gergiev, Rene Pape, Nina Stemme, Mariinsky Orchestra
09. Act III ix. Nicht streb, o Maid // Valery Gergiev, Rene Pape, Nina Stemme, Mariinsky Orchestra
10. Act III x. Leb wohl, du kuhnes, herrliches Kind! // Valery Gergiev, Rene Pape, Mariinsky Orchestra
11. Act III xi. Der Augen leuchtendes Paar // Valery Gergiev, Rene Pape, Mariinsky Orchestra
12. Act III xii. Loge, hor'! Lausche hieher! // Valery Gergiev, Rene Pape, Mariinsky Orchestra

Лог DR
foobar2000 1.3.10 / Замер динамического диапазона (DR) 1.1.1
Дата отчёта: 2016-10-05 21:08:27
--------------------------------------------------------------------------------
Анализ: Valery Gergiev, Mariinsky Orchestra / WAGNER Die Walkure
--------------------------------------------------------------------------------
DR Пики RMS Продолжительность трека
--------------------------------------------------------------------------------
DR15 -4.87 дБ -28.79 дБ 4:04 01-Act I i. Vorspiel und Erste Szene
DR15 -13.53 дБ -41.37 дБ 9:08 02-Act I ii. Wes' Herd dies auch sei
DR15 -11.65 дБ -37.50 дБ 3:33 03-Act I iii. Einen Unseligen labtest du
DR16 -15.08 дБ -40.94 дБ 5:17 04-Act I iv. Zweite Szene: Mud' am Herd fand ich den Mann
DR15 -12.90 дБ -37.96 дБ 6:36 05-Act I v. Friedmund darf ich nict heissen
DR13 -13.14 дБ -37.02 дБ 4:13 06-Act I vi. Die so leidig Los dir beschied
DR16 -10.35 дБ -38.07 дБ 5:33 07-Act I vii. Ich weiss ein wildes Geschlecht
DR14 -10.77 дБ -35.98 дБ 6:33 08-Act I viii. Dritte Szene: Ein Schwert verhiess mir der Vater
DR16 -4.26 дБ -30.63 дБ 7:03 09-Act I ix. Schlafst du, Gast?
DR12 -12.08 дБ -34.25 дБ 3:05 10-Act I x. Wintersturme wichen dem Wonnemond
DR12 -8.38 дБ -32.03 дБ 2:15 11-Act I xi. Du bist der Lenz
DR14 -8.16 дБ -33.26 дБ 6:37 12-Act I xii. O susseste Wonne!
DR14 -4.11 дБ -27.78 дБ 3:51 13-Act I xiii. Siegmund heiss' ich
--------------------------------------------------------------------------------
Количество треков: 13
Реальные значения DR: DR14
Частота: 2822400 Гц / Частота PCM: 44100 Гц
Каналов: 5
Разрядность: 24
Битрейт: 14112 кбит/с
Кодек: DST64
================================================================================
--------------------------------------------------------------------------------
Анализ: Valery Gergiev, Mariinsky Orchestra / WAGNER Die Walkure
--------------------------------------------------------------------------------
DR Пики RMS Продолжительность трека
--------------------------------------------------------------------------------
DR13 -4.60 дБ -25.35 дБ 4:04 01-Act I i. Vorspiel und Erste Szene
DR16 -14.01 дБ -37.50 дБ 9:08 02-Act I ii. Wes' Herd dies auch sei
DR14 -11.36 дБ -33.55 дБ 3:33 03-Act I iii. Einen Unseligen labtest du
DR15 -16.24 дБ -36.99 дБ 5:17 04-Act I iv. Zweite Szene: Mud' am Herd fand ich den Mann
DR15 -11.02 дБ -34.03 дБ 6:36 05-Act I v. Friedmund darf ich nict heissen
DR14 -13.31 дБ -33.20 дБ 4:13 06-Act I vi. Die so leidig Los dir beschied
DR17 -11.03 дБ -34.15 дБ 5:33 07-Act I vii. Ich weiss ein wildes Geschlecht
DR14 -11.95 дБ -32.00 дБ 6:33 08-Act I viii. Dritte Szene: Ein Schwert verhiess mir der Vater
DR15 -4.84 дБ -26.99 дБ 7:03 09-Act I ix. Schlafst du, Gast?
DR13 -11.92 дБ -30.36 дБ 3:05 10-Act I x. Wintersturme wichen dem Wonnemond
DR12 -9.34 дБ -28.10 дБ 2:15 11-Act I xi. Du bist der Lenz
DR15 -7.85 дБ -28.77 дБ 6:37 12-Act I xii. O susseste Wonne!
DR14 -4.56 дБ -23.99 дБ 3:51 13-Act I xiii. Siegmund heiss' ich
--------------------------------------------------------------------------------
Количество треков: 13
Реальные значения DR: DR14
Частота: 2822400 Гц / Частота PCM: 44100 Гц
Каналов: 2
Разрядность: 24
Битрейт: 5645 кбит/с
Кодек: DST64
================================================================================
foobar2000 1.3.10 / Замер динамического диапазона (DR) 1.1.1
Дата отчёта: 2016-10-05 22:24:32
--------------------------------------------------------------------------------
Анализ: Valery Gergiev, Mariinsky Orchestra / WAGNER Die Walkure
--------------------------------------------------------------------------------
DR Пики RMS Продолжительность трека
--------------------------------------------------------------------------------
DR12 -6.77 дБ -28.11 дБ 2:38 01-Act II i. Vorspiel und Erste Szene - Nun zaume dein Ross
DR13 -9.46 дБ -30.89 дБ 2:20 02-Act II ii. Hojotoho!
DR15 -9.43 дБ -37.28 дБ 3:48 03-Act II iii. Der alte Sturm, die alte Muh'!
DR13 -8.78 дБ -33.94 дБ 4:06 04-Act II iv. Heut' - hast du's erlebt!
DR15 -9.92 дБ -36.01 дБ 6:09 05-Act II v. Nichts lerntest du
DR14 -11.12 дБ -34.95 дБ 2:30 06-Act II vi. Was verlangst du?
DR12 -11.63 дБ -37.86 дБ 3:34 07-Act II vii. Deiner ew'gen Gattin heilige Ehre
DR16 -10.76 дБ -39.74 дБ 10:16 08-Act II viii. Zweite Szene: Schlimm, furcht ich
DR15 -11.23 дБ -36.51 дБ 5:45 09-Act II ix. Ein Andres ist's: achte es wohl
DR14 -11.35 дБ -34.69 дБ 3:34 10-Act II x. So nimmst du von Siegmund den Sieg?
DR14 -4.96 дБ -31.58 дБ 5:42 11-Act II xi. So nimm meinen Segen, Niblungen-Sohn!
--------------------------------------------------------------------------------
Количество треков: 11
Реальные значения DR: DR14
Частота: 2822400 Гц / Частота PCM: 44100 Гц
Каналов: 5
Разрядность: 24
Битрейт: 14112 кбит/с
Кодек: DST64
================================================================================
--------------------------------------------------------------------------------
Анализ: Valery Gergiev, Mariinsky Orchestra / WAGNER Die Walkure
--------------------------------------------------------------------------------
DR Пики RMS Продолжительность трека
--------------------------------------------------------------------------------
DR12 -7.22 дБ -24.29 дБ 2:38 01-Act II i. Vorspiel und Erste Szene - Nun zaume dein Ross
DR13 -9.60 дБ -26.94 дБ 2:20 02-Act II ii. Hojotoho!
DR16 -9.40 дБ -33.34 дБ 3:48 03-Act II iii. Der alte Sturm, die alte Muh'!
DR13 -9.21 дБ -29.65 дБ 4:06 04-Act II iv. Heut' - hast du's erlebt!
DR14 -9.56 дБ -32.01 дБ 6:09 05-Act II v. Nichts lerntest du
DR14 -11.00 дБ -30.82 дБ 2:30 06-Act II vi. Was verlangst du?
DR13 -9.67 дБ -33.97 дБ 3:34 07-Act II vii. Deiner ew'gen Gattin heilige Ehre
DR17 -12.29 дБ -35.80 дБ 10:16 08-Act II viii. Zweite Szene: Schlimm, furcht ich
DR15 -11.30 дБ -32.56 дБ 5:45 09-Act II ix. Ein Andres ist's: achte es wohl
DR14 -10.27 дБ -30.80 дБ 3:34 10-Act II x. So nimmst du von Siegmund den Sieg?
DR14 -5.67 дБ -27.76 дБ 5:42 11-Act II xi. So nimm meinen Segen, Niblungen-Sohn!
--------------------------------------------------------------------------------
Количество треков: 11
Реальные значения DR: DR14
Частота: 2822400 Гц / Частота PCM: 44100 Гц
Каналов: 2
Разрядность: 24
Битрейт: 5645 кбит/с
Кодек: DST64
================================================================================
foobar2000 1.3.10 / Замер динамического диапазона (DR) 1.1.1
Дата отчёта: 2016-10-05 23:11:48
--------------------------------------------------------------------------------
Анализ: Valery Gergiev, Mariinsky Orchestra / WAGNER Die Walkure
--------------------------------------------------------------------------------
DR Пики RMS Продолжительность трека
--------------------------------------------------------------------------------
DR11 -21.58 дБ -43.78 дБ 2:28 01-Act II xii. Schwer wiegt mir der Waffen Wucht!
DR15 -6.17 дБ -31.59 дБ 8:56 02-Act II xiii. Dritte Szene: Raste nun hier, gonne dir Ruh'!
DR15 -4.79 дБ -34.04 дБ 3:49 03-Act II xiv. Wo bist du, Siegmund?
DR15 -11.76 дБ -37.38 дБ 10:56 04-Act II xv. Vierte Szene: Siegmund! Sieh auf mich!
DR15 -5.63 дБ -31.03 дБ 4:27 05-Act II xvi. Du sahst der Walkure sehrenden Blick
DR13 -5.79 дБ -28.80 дБ 4:58 06-Act II xvii. So jung un schon erschimmerst du mir
DR11 -19.28 дБ -43.81 дБ 3:01 07-Act II xviii. Funfte Szene: Zauberfest bezahmt ein Schlaf
DR14 -6.10 дБ -29.03 дБ 3:36 08-Act II xix. Der dort mich ruft
DR14 -5.48 дБ -31.58 дБ 3:31 09-Act II xx. Zu Ross! dass ich dich rette!
--------------------------------------------------------------------------------
Количество треков: 9
Реальные значения DR: DR14
Частота: 2822400 Гц / Частота PCM: 44100 Гц
Каналов: 5
Разрядность: 24
Битрейт: 14112 кбит/с
Кодек: DST64
================================================================================
--------------------------------------------------------------------------------
Анализ: Valery Gergiev, Mariinsky Orchestra / WAGNER Die Walkure
--------------------------------------------------------------------------------
DR Пики RMS Продолжительность трека
--------------------------------------------------------------------------------
DR12 -21.17 дБ -39.93 дБ 2:28 01-Act II xii. Schwer wiegt mir der Waffen Wucht!
DR15 -5.56 дБ -27.65 дБ 8:56 02-Act II xiii. Dritte Szene: Raste nun hier, gonne dir Ruh'!
DR16 -4.42 дБ -29.85 дБ 3:49 03-Act II xiv. Wo bist du, Siegmund?
DR15 -11.76 дБ -33.68 дБ 10:56 04-Act II xv. Vierte Szene: Siegmund! Sieh auf mich!
DR15 -5.63 дБ -27.44 дБ 4:27 05-Act II xvi. Du sahst der Walkure sehrenden Blick
DR14 -5.79 дБ -25.13 дБ 4:58 06-Act II xvii. So jung un schon erschimmerst du mir
DR11 -20.26 дБ -39.99 дБ 3:01 07-Act II xviii. Funfte Szene: Zauberfest bezahmt ein Schlaf
DR14 -4.22 дБ -25.07 дБ 3:36 08-Act II xix. Der dort mich ruft
DR14 -4.49 дБ -27.55 дБ 3:31 09-Act II xx. Zu Ross! dass ich dich rette!
--------------------------------------------------------------------------------
Количество треков: 9
Реальные значения DR: DR14
Частота: 2822400 Гц / Частота PCM: 44100 Гц
Каналов: 2
Разрядность: 24
Битрейт: 5645 кбит/с
Кодек: DST64
================================================================================
foobar2000 1.3.10 / Замер динамического диапазона (DR) 1.1.1
Дата отчёта: 2016-10-05 23:53:43
--------------------------------------------------------------------------------
Анализ: Valery Gergiev, Mariinsky Orchestra / WAGNER Die Walkure
--------------------------------------------------------------------------------
DR Пики RMS Продолжительность трека
--------------------------------------------------------------------------------
DR13 -5.01 дБ -28.36 дБ 2:26 01-Act III i. Vorspiel und Erste Szene: Hojotoho! Hojotoho!
DR14 -5.46 дБ -27.84 дБ 5:37 02-Act III ii. Zu Ortlinde's Stute stell' deinen Hengst
DR15 -9.01 дБ -31.53 дБ 3:39 03-Act III iii. Schutzt mich und helft in hochster Not!
DR14 -7.35 дБ -30.16 дБ 6:53 04-Act III iv. Nicht sehre dich Sorge um mich
DR15 -8.39 дБ -33.67 дБ 4:58 05-Act III v. Zweite Szene: Wo ist Brunnhild
DR16 -4.64 дБ -30.87 дБ 8:50 06-Act III vi. Hier bin ich, Vater
DR16 -11.79 дБ -36.61 дБ 10:10 07-Act III vii. Dritte Szene: War es so schmahlich
DR15 -11.13 дБ -36.27 дБ 8:47 08-Act III viii. So tatest du, was so gern zu tun ich begehrt
DR14 -9.93 дБ -33.08 дБ 4:53 09-Act III ix. Nicht streb, o Maid
DR14 -7.25 дБ -31.24 дБ 4:44 10-Act III x. Leb wohl, du kuhnes, herrliches Kind!
DR14 -18.24 дБ -40.97 дБ 7:34 11-Act III xi. Der Augen leuchtendes Paar
DR13 -10.02 дБ -31.89 дБ 4:11 12-Act III xii. Loge, hor'! Lausche hieher!
--------------------------------------------------------------------------------
Количество треков: 12
Реальные значения DR: DR14
Частота: 2822400 Гц / Частота PCM: 44100 Гц
Каналов: 5
Разрядность: 24
Битрейт: 14112 кбит/с
Кодек: DST64
================================================================================
--------------------------------------------------------------------------------
Анализ: Valery Gergiev, Mariinsky Orchestra / WAGNER Die Walkure
--------------------------------------------------------------------------------
DR Пики RMS Продолжительность трека
--------------------------------------------------------------------------------
DR13 -5.04 дБ -24.52 дБ 2:26 01-Act III i. Vorspiel und Erste Szene: Hojotoho! Hojotoho!
DR14 -4.21 дБ -23.91 дБ 5:37 02-Act III ii. Zu Ortlinde's Stute stell' deinen Hengst
DR14 -7.11 дБ -27.68 дБ 3:39 03-Act III iii. Schutzt mich und helft in hochster Not!
DR14 -5.83 дБ -26.16 дБ 6:53 04-Act III iv. Nicht sehre dich Sorge um mich
DR15 -8.03 дБ -29.74 дБ 4:58 05-Act III v. Zweite Szene: Wo ist Brunnhild
DR17 -4.18 дБ -27.12 дБ 8:50 06-Act III vi. Hier bin ich, Vater
DR15 -11.04 дБ -32.70 дБ 10:10 07-Act III vii. Dritte Szene: War es so schmahlich
DR14 -11.60 дБ -32.26 дБ 8:47 08-Act III viii. So tatest du, was so gern zu tun ich begehrt
DR14 -8.56 дБ -29.19 дБ 4:53 09-Act III ix. Nicht streb, o Maid
DR14 -6.93 дБ -27.25 дБ 4:44 10-Act III x. Leb wohl, du kuhnes, herrliches Kind!
DR15 -17.30 дБ -37.00 дБ 7:34 11-Act III xi. Der Augen leuchtendes Paar
DR14 -8.82 дБ -27.96 дБ 4:11 12-Act III xii. Loge, hor'! Lausche hieher!
--------------------------------------------------------------------------------
Количество треков: 12
Реальные значения DR: DR14
Частота: 2822400 Гц / Частота PCM: 44100 Гц
Каналов: 2
Разрядность: 24
Битрейт: 5645 кбит/с
Кодек: DST64
================================================================================

Доп. информация: MAR0527 (4 discs)
Источник (релизер): WEB

Об альбоме (сборнике)
The highly anticipated first release from the most finely crafted Ring cycle of modern times, Die Walküre features a sensational cast of Anja Kampe, Jonas Kaufmann, René Pape, Nina Stemme, Mikhail Petrenko and Ekaterina Gubanova.
Der Ring des Nibelungen was the pinnacle of Richard Wagner's long and turbulent career and without question one of the greatest achievements in opera. Wagner wanted to create the perfect synthesis of music and drama and assumed total creative control of the project which was to take him 26 years to complete, with frequent interruptions. He introduced numerous innovations, not least the sheer scale of the project – typically a complete performance will last in excess of 15 hours, spread over four evenings. No other opera matches the scale or ambition of the Ring.
The Mariinsky Theatre has close connections with Wagner and his music. The composer conducted at the theatre and was even offered the post of Music Director. It is also believed to be the first place where any of the music from the Ring was performed. Since Valery Gergiev became Music Director of the Mariinsky, Wagner's music has once again become a core part of the theatre's repertoire, both in St Petersburg and on tour. The Mariinsky label's recording of Wagner's final opera Parsifal starring René Pape, Gary Lehmann and Violeta Urmana, was released in 2010 to international acclaim.