Призрак / Призрак дома на холме / Логово дьявола / The Haunting (Роберт Уайз / Robert Wise) [1963, Великобритания, США, ужасы, триллер, BDRemux 1080p] VO (fiendover) + Sub Eng + Original Eng


Страна: Великобритания, США
Студия: Argyle Enterprises
Жанр: ужасы, триллер
Год выпуска: 1963
Продолжительность: 01:51:54
Перевод: Одноголосый закадровый fiendover
Субтитры: английские
Оригинальная аудиодорожка: английский
Режиссер: Роберт Уайз / Robert Wise
В ролях: Джули Харрис, Клэр Блум, Ричард Джонсон, Расс Тэмблин, Фэй Комптон, Розали Кратчли, Лоис Максуэлл, Валентайн Дайалл, Дайан Клер, Рональд Адам и др.
Описание: Исследуя внутреннюю историю страшного дома доктор приглашает в него трех человек, которые должны помочь ему в его исследовании. А история этого дома на холме страшна: владелец дома утонул, его две жены погибли при загадочных обстоятельствах, дочь, которая его унаследовала, умерла после того, как сиделка не оказала ей помощь. А сама сиделка после вступления во владения — покончила с собой; дом принимает новых гостей и начинает с ними свою ужасную игру.
II II II
Тип релиза: BDRemux 1080p
Контейнер: MKV
Видео: AVC / 1920x1080 / 16:9 / 23.976fps / 22000Kbps / High@L4.1
Аудио 1: AC3 / 48.0 KHz / 1ch. / 128kbps / Rus / VO / fiendover
Аудио 2: DTS-HD MA / 48.0 KHz / 1ch / 1024kbps / 24bit (DTS Core 48.0 KHz / 1ch / 768kbps / 24bit) Eng
Аудио 3: AC3 / 48.0 KHz / 1ch. / 128kbps / Rus / Comments
Аудио 4: AC3 / 48.0 KHz / 2ch. / 192kbps / Eng / Comments
Формат субтитров: softsub (SRT)
MediaInfo
Общее
Уникальный идентификатор : 244001900335157910045758178373397967592 (0xB7910E7F95AABA8FAD82496ACD18F2E8)
Полное имя : D:\_Torrent\HD1\The.Haunting.1963.BDRemux.1080p_by_vedigo.mkv
Формат : Matroska
Версия формата : Version 4 / Version 2
Размер файла : 18,3 Гбайт
Продолжительность : 1 ч. 51 м.
Режим общего битрейта : Переменный
Общий поток : 23,4 Мбит/сек
Название фильма : The.Haunting.1963.BDRemux.1080p_by_vedigo
Дата кодирования : UTC 2016-12-09 12:52:03
Программа кодирования : mkvmerge v9.6.0 ('Slave To Your Mind') 64bit
Библиотека кодирования : libebml v1.3.4 + libmatroska v1.4.5
Видео
Идентификатор : 1
Формат : AVC
Формат/Информация : Advanced Video Codec
Профиль формата : High@L4.1
Параметр CABAC формата : Да
Параметр ReFrames формата : 2 кадра
Параметр GOP формата : M=1, N=10
Идентификатор кодека : V_MPEG4/ISO/AVC
Продолжительность : 1 ч. 51 м.
Вид битрейта : Переменный
Битрейт : 22,0 Мбит/сек
Ширина : 1920 пикселей
Высота : 1080 пикселей
Соотношение сторон : 16:9
Режим частоты кадров : Постоянный
Частота кадров : 23,976 (24000/1001) кадра/сек
Цветовое пространство : YUV
Субдискретизация насыщенности : 4:2:0
Битовая глубина : 8 бит
Тип развёртки : Прогрессивная
Бит/(Пиксели*Кадры) : 0.442
Размер потока : 17,2 Гбайт (94%)
Заголовок : The.Haunting.1963.BDRemux.1080p_by_vedigo
Default : Да
Forced : Нет
Аудио #1
Идентификатор : 2
Формат : AC-3
Формат/Информация : Audio Coding 3
Расширение режима : CM (complete main)
Параметр Endianness формата : Big
Идентификатор кодека : A_AC3
Продолжительность : 1 ч. 51 м.
Вид битрейта : Постоянный
Битрейт : 128 Кбит/сек
Каналы : 1 канал
Расположение каналов : Front: C
Частота : 48,0 КГц
Частота кадров : 31,250 кадров/сек (1536 spf)
Метод сжатия : С потерями
Размер потока : 102 Мбайт (1%)
Заголовок : VO @ fiendover
Язык : Russian
Default : Да
Forced : Нет
Аудио #2
Идентификатор : 3
Формат : DTS
Формат/Информация : Digital Theater Systems
Профиль формата : MA / Core
Режим : 16
Параметр Endianness формата : Big
Идентификатор кодека : A_DTS
Продолжительность : 1 ч. 51 м.
Вид битрейта : Переменный / Постоянный
Битрейт : 1024 Кбит/сек / 768 Кбит/сек
Каналы : 1 канал
Расположение каналов : Front: C
Частота : 48,0 КГц
Частота кадров : 93,750 кадра/сек (512 spf)
Битовая глубина : 24 бит
Метод сжатия : Без потерь / Lossy
Размер потока : 827 Мбайт (4%)
Заголовок : Original
Язык : English
Default : Нет
Forced : Нет
Аудио #3
Идентификатор : 4
Формат : AC-3
Формат/Информация : Audio Coding 3
Расширение режима : CM (complete main)
Параметр Endianness формата : Big
Идентификатор кодека : A_AC3
Продолжительность : 1 ч. 51 м.
Вид битрейта : Постоянный
Битрейт : 128 Кбит/сек
Каналы : 1 канал
Расположение каналов : Front: C
Частота : 48,0 КГц
Частота кадров : 31,250 кадров/сек (1536 spf)
Метод сжатия : С потерями
Размер потока : 102 Мбайт (1%)
Заголовок : Comments
Язык : Russian
Default : Нет
Forced : Нет
Аудио #4
Идентификатор : 5
Формат : AC-3
Формат/Информация : Audio Coding 3
Расширение режима : CM (complete main)
Параметр Endianness формата : Big
Идентификатор кодека : A_AC3
Продолжительность : 1 ч. 51 м.
Вид битрейта : Постоянный
Битрейт : 192 Кбит/сек
Каналы : 2 канала
Расположение каналов : Front: L R
Частота : 48,0 КГц
Частота кадров : 31,250 кадров/сек (1536 spf)
Метод сжатия : С потерями
Размер потока : 154 Мбайт (1%)
Заголовок : Comments
Язык : English
Default : Нет
Forced : Нет
Текст
Идентификатор : 6
Формат : UTF-8
Идентификатор кодека : S_TEXT/UTF8
Идентификатор кодека/Информация : UTF-8 Plain Text
Продолжительность : 1 ч. 51 м.
Битрейт : 71 бит/сек
Count of elements : 1439
Размер потока : 58,1 Кбайт (0%)
Заголовок : Subtitle eng
Язык : English
Default : Нет
Forced : Нет
Меню
00:00:00.000 : en:00:00:00.000
00:02:11.798 : en:00:02:11.798
00:06:34.936 : en:00:06:34.936
00:09:10.341 : en:00:09:10.341
00:12:39.634 : en:00:12:39.634
00:14:46.469 : en:00:14:46.469
00:18:29.317 : en:00:18:29.317
00:22:23.509 : en:00:22:23.509
00:26:02.770 : en:00:26:02.770
00:30:39.129 : en:00:30:39.129
00:35:13.153 : en:00:35:13.153
00:40:27.133 : en:00:40:27.133
00:47:25.593 : en:00:47:25.593
00:51:12.820 : en:00:51:12.820
00:55:40.629 : en:00:55:40.629
00:58:30.590 : en:00:58:30.590
01:03:17.544 : en:01:03:17.544
01:05:51.865 : en:01:05:51.865
01:08:09.460 : en:01:08:09.460
01:12:32.723 : en:01:12:32.723
01:17:28.978 : en:01:17:28.978
01:20:02.798 : en:01:20:02.798
01:25:17.362 : en:01:25:17.362
01:29:51.428 : en:01:29:51.428
01:32:11.651 : en:01:32:11.651
01:35:03.781 : en:01:35:03.781
01:39:05.857 : en:01:39:05.857
01:42:47.995 : en:01:42:47.995
01:46:43.230 : en:01:46:43.230
01:50:02.513 : en:01:50:02.513
Скриншоты