Зимняя встреча / Winter Meeting (Британ Уиндаст / Bretaigne Windust) [1948, США, драма, WEB-DL 1080p] MVO (СВ-Дубль) + Original Eng + Sub Eng


Год выпуска: 1948
Страна: США
Жанр: драма
Продолжительность: 01:44:29
Перевод: Профессиональный (многоголосый закадровый) СВ-Дубль по заказу ГТРК "Культура"
Оригинальная аудиодорожка: Английская
Субтитры: Английские
Режиссер: Британ Уиндаст / Bretaigne Windust
В ролях: Бетт Дэвис /Bette Davis, Дженис Пейдж / Janis Paige, Джим Дэвис / Jim Davis, Джон Хойт / John Hoyt, Флоренс Бейтс / Florence Bates, Уолтер Болдуин / Walter Baldwin, Рэнсом М. Шерман / Ransom M. Sherman, Вуди Херман / Woody Herman, Луис Остин / Lois Austin, Дуглас Картер / Douglas Carter
Описание:
Офицер Слик Новак направляется в Нью-Йорк для сбора средств Морскому госпиталю. На благотворительном балу он знакомится с успешной поэтессой — своенравной Сюзан Грив. Вскоре он приезжает в ее имение в Вайонсете. Они многое узнают друг о друге: Слик признаётся, что когда-то мечтал стать священником, а Сюзан рассказывает о трагической смерти отца, в которой она винит мать. На следующее утро он уезжает не попрощавшись…
За дорожку спасибо Papa-san. Отдельное спасибо Ugo927 за помощь.
| |
Качество: WEB-DL 1080p (SbR)
Контейнер: MKV
Видео: AVC (x264), 1440x1080 (1.33:1), 23.976 fps, 9612 kbps
Аудио 1: Русский AC3 2.0, 48 kHz, 192 kbps
Аудио 2: Английский AC3 2.0, 48 kHz, 192 kbps
Скриншоты

MI
General
Unique ID : 214052435942441332144810031941057276123 (0xA108FFE61DF856BEB4D69157E03068DB)
Complete name : Winter.Meeting 1948.1080p.WEB-DL.DD2.0.H.264-SbR.mkv
Format : Matroska
Format version : Version 2
File size : 7.30 GiB
Duration : 1 h 44 min
Overall bit rate mode : Variable
Overall bit rate : 9 999 kb/s
Movie name : Winter Meeting / Зимняя встреча (1948) – RuTracker
Encoded date : UTC 2016-12-06 21:22:30
Writing application : mkvmerge v9.6.0 ('Slave To Your Mind') 64bit
Writing library : libebml v1.3.4 + libmatroska v1.4.5
Cover : Yes
Attachments : cover.jpg
Video
ID : 1
Format : AVC
Format/Info : Advanced Video Codec
Format profile : High@L4
Format settings, CABAC : Yes
Format settings, ReFrames : 4 frames
Codec ID : V_MPEG4/ISO/AVC
Duration : 1 h 44 min
Bit rate mode : Variable
Bit rate : 9 612 kb/s
Maximum bit rate : 15.0 Mb/s
Width : 1 440 pixels
Height : 1 080 pixels
Display aspect ratio : 4:3
Frame rate mode : Constant
Frame rate : 23.976 (24000/1001) FPS
Color space : YUV
Chroma subsampling : 4:2:0
Bit depth : 8 bits
Scan type : Progressive
Bits/(Pixel*Frame) : 0.258
Stream size : 7.02 GiB (96%)
Title : Winter.Meeting 1948.1080p.WEB-DL.DD2.0.H.264-SbR
Writing library : x264 core 148 r2623 d5b2374
Encoding settings : cabac=1 / ref=4 / deblock=1:-1:-1 / analyse=0x3:0x133 / me=umh / subme=9 / psy=1 / psy_rd=1.00:0.15 / mixed_ref=1 / me_range=24 / chroma_me=1 / trellis=2 / 8x8dct=1 / cqm=0 / deadzone=21,11 / fast_pskip=1 / chroma_qp_offset=-3 / threads=34 / lookahead_threads=5 / sliced_threads=0 / nr=150 / decimate=1 / interlaced=0 / bluray_compat=0 / constrained_intra=0 / bframes=8 / b_pyramid=2 / b_adapt=2 / b_bias=0 / direct=3 / weightb=1 / open_gop=0 / weightp=2 / keyint=120 / keyint_min=61 / scenecut=0 / intra_refresh=0 / rc_lookahead=120 / rc=crf / mbtree=1 / crf=18.0 / qcomp=0.60 / qpmin=0 / qpmax=69 / qpstep=4 / vbv_maxrate=15000 / vbv_bufsize=31250 / crf_max=0.0 / nal_hrd=vbr / filler=0 / ip_ratio=1.40 / aq=3:1.00
Language : English
Default : Yes
Forced : No
Color range : Limited
Color primaries : BT.709
Transfer characteristics : BT.709
Matrix coefficients : BT.709
Audio #1
ID : 2
Format : AC-3
Format/Info : Audio Coding 3
Mode extension : CM (complete main)
Format settings, Endianness : Big
Codec ID : A_AC3
Duration : 1 h 44 min
Bit rate mode : Constant
Bit rate : 192 kb/s
Channel(s) : 2 channels
Channel positions : Front: L R
Sampling rate : 48.0 kHz
Frame rate : 31.250 FPS (1536 spf)
Compression mode : Lossy
Stream size : 143 MiB (2%)
Title : MVO – СВ-Дубль
Language : Russian
Default : Yes
Forced : No
Audio #2
ID : 3
Format : AC-3
Format/Info : Audio Coding 3
Mode extension : CM (complete main)
Format settings, Endianness : Big
Codec ID : A_AC3
Duration : 1 h 44 min
Bit rate mode : Constant
Bit rate : 192 kb/s
Channel(s) : 2 channels
Channel positions : Front: L R
Sampling rate : 48.0 kHz
Frame rate : 31.250 FPS (1536 spf)
Compression mode : Lossy
Stream size : 143 MiB (2%)
Title : Original
Language : English
Default : No
Forced : No
Text #1
ID : 4
Format : UTF-8
Codec ID : S_TEXT/UTF8
Codec ID/Info : UTF-8 Plain Text
Duration : 1 h 42 min
Bit rate : 69 b/s
Count of elements : 1736
Stream size : 52.0 KiB (0%)
Language : English
Default : No
Forced : No
Text #2
ID : 5
Format : UTF-8
Codec ID : S_TEXT/UTF8
Codec ID/Info : UTF-8 Plain Text
Duration : 1 h 43 min
Bit rate : 69 b/s
Count of elements : 1771
Stream size : 52.6 KiB (0%)
Title : SDH
Language : English
Default : No
Forced : No