(Classical) Janacek & Smetana - String Quartets - Takacs Quartet - 2015, FLAC (image+.cue) lossless


Жанр: Classical
Страна-производитель диска: UK
Год издания диска: 2015
Издатель (лейбл): Hyperion
Номер по каталогу: CDA67997
Дата записи: 2014
Аудиокодек: FLAC
Тип рипа: image+.cue
Битрейт аудио: lossless
Продолжительность: 71:29
Источник: собственный рип
Наличие сканов в содержимом раздачи: да
Треклист:
Bedřich Smetana (1824-1884)
[1]-[4] String Quartet No.1 in E minor
Leoš Janáček (1854-1928)
[5]-[8] String Quartet No.1 'The Kreutzer Sonata' JW VII/8
[9]-[12] String Quartet No.2 'Intimate letters' JW VII/13
Исполнители:
Takács Quartet
Edward Dusinberre violin
Károly Schranz violin
Geraldine Walther viola
András Fejér cello
Лог создания рипа
Exact Audio Copy V1.1 from 23. June 2015
EAC extraction logfile from 4. December 2015, 22:37
Takács Quartet / Smetana & Janácek - String Quartets
Used drive : HL-DT-STDVDRAM GU70N Adapter: 1 ID: 0
Read mode : Secure
Utilize accurate stream : Yes
Defeat audio cache : Yes
Make use of C2 pointers : No
Read offset correction : 48
Overread into Lead-In and Lead-Out : No
Fill up missing offset samples with silence : Yes
Delete leading and trailing silent blocks : No
Null samples used in CRC calculations : Yes
Used interface : Native Win32 interface for Win NT & 2000
Used output format : User Defined Encoder
Selected bitrate : 128 kBit/s
Quality : High
Add ID3 tag : No
Command line compressor : C:\Program Files (x86)\Exact Audio Copy\Flac\flac.exe
Additional command line options : -V -8 -T "Date=%year%" -T "Genre=%genre%" %source%
TOC of the extracted CD
Track | Start | Length | Start sector | End sector
---------------------------------------------------------
1 | 0:00.00 | 7:05.09 | 0 | 31883
2 | 7:05.09 | 5:31.61 | 31884 | 56769
3 | 12:36.70 | 8:17.24 | 56770 | 94068
4 | 20:54.19 | 6:07.51 | 94069 | 121644
5 | 27:01.70 | 4:16.07 | 121645 | 140851
6 | 31:18.02 | 4:34.67 | 140852 | 161468
7 | 35:52.69 | 4:09.59 | 161469 | 180202
8 | 40:02.53 | 5:36.28 | 180203 | 205430
9 | 45:39.06 | 6:09.00 | 205431 | 233105
10 | 51:48.06 | 5:48.52 | 233106 | 259257
11 | 57:36.58 | 5:27.35 | 259258 | 283817
12 | 63:04.18 | 8:23.41 | 283818 | 321583
Range status and errors
Selected range
Filename C:\temp\CDA67997 - Janacek & Smetana - String Quartets - Takacs Quartet\Smetana & Janacek - String Quartets.wav
Peak level 99.9 %
Extraction speed 2.1 X
Range quality 99.9 %
Test CRC 6A34A2A6
Copy CRC 6A34A2A6
Copy OK
No errors occurred
AccurateRip summary
Track 1 not present in database
Track 2 not present in database
Track 3 not present in database
Track 4 not present in database
Track 5 not present in database
Track 6 not present in database
Track 7 not present in database
Track 8 not present in database
Track 9 not present in database
Track 10 not present in database
Track 11 not present in database
Track 12 not present in database
None of the tracks are present in the AccurateRip database
End of status report
==== Log checksum 86940EA70B93B87B5C950DC3B04D17AD9D457FA25522C5E70A46F5B61B91F6B2 ====