Станция Бховани / Bhowani Junction (Джордж Кьюкор / George Cukor) [1956, США, Великобритания, мелодрама, драма, приключения, WEB-DL 1080p] DVO (Культура) + Original Eng + Sub Eng


Год выпуска: 1956
Страна: США, Великобритания
Жанр: мелодрама, драма, приключения
Продолжительность: 01:49:42
Перевод: Профессиональный (двухголосый закадровый) ГТРК "Культура"
Оригинальная аудиодорожка: Английская
Субтитры: Английские
Режиссер: Джордж Кьюкор / George Cukor
В ролях: Ава Гарднер, Стюарт Грейнджер, Билл Трэверс, Абрам Софаэр, Фрэнсис Мэтьюз, Марне Мейтленд
Описание:
Индия, 1947 год. Британцы сворачивают флаги и покидают свою уже бывшую колонию. Покидают на эшелонах. В центре повествования — полукровка Виктория. Она крутит шашни с другим полукровкой — Тейлором, который работает администратором железнодорожной станции Бховани. Виктория на протяжении фильма мечется и колеблется, не находя себе места ни в индусской культурной традиции (в данном случае — в религии сикхов, смеси индуизма и мусульманства), ни в европейской. На станцию прибывает полковник пограничных войск Родни Сэвэдж...
За русскую дорожку спасибо JayBee.
| |
Качество: WEB-DL 1080p (SbR)
Контейнер: MKV
Видео: AVC (x264), 1920x1080 (2.56:1), 23.976 fps, 11010 kbps
Аудио 1: Русский AC3 2.0, 48 kHz, 192 kbps
Аудио 2: Английский EAC3 2.0, 48 kHz, 224 kbps
Скриншоты

MI
General
Unique ID : 205558263089023791715421656202517312711 (0x9AA514D7EFE31E69B4D476064C0E74C7)
Complete name : Bhowani.Junction.1956.1080p.WEB-DL.DD2.0.H.264-SbR.mkv
Format : Matroska
Format version : Version 2
File size : 8.76 GiB
Duration : 1 h 49 min
Overall bit rate mode : Variable
Overall bit rate : 11.4 Mb/s
Movie name : Bhowani Junction / Станция Бховани (1956) – RuTracker
Encoded date : UTC 2016-10-29 14:58:56
Writing application : mkvmerge v9.5.0 ('Quiet Fire') 64bit
Writing library : libebml v1.3.4 + libmatroska v1.4.5
Cover : Yes
Attachments : cover.jpg
Video
ID : 1
Format : AVC
Format/Info : Advanced Video Codec
Format profile : High@L4
Format settings, CABAC : Yes
Format settings, ReFrames : 4 frames
Codec ID : V_MPEG4/ISO/AVC
Duration : 1 h 49 min
Bit rate mode : Variable
Bit rate : 11.0 Mb/s
Maximum bit rate : 15.0 Mb/s
Width : 1 920 pixels
Height : 1 080 pixels
Display aspect ratio : 16:9
Frame rate mode : Constant
Frame rate : 23.976 (24000/1001) FPS
Color space : YUV
Chroma subsampling : 4:2:0
Bit depth : 8 bits
Scan type : Progressive
Bits/(Pixel*Frame) : 0.221
Stream size : 8.44 GiB (96%)
Title : Bhowani.Junction.1956.1080p.WEB-DL.DD+2.0.H.264-SbR
Writing library : x264 core 148 r2623 d5b2374
Encoding settings : cabac=1 / ref=4 / deblock=1:-1:-1 / analyse=0x3:0x133 / me=umh / subme=9 / psy=1 / psy_rd=1.00:0.15 / mixed_ref=1 / me_range=24 / chroma_me=1 / trellis=2 / 8x8dct=1 / cqm=0 / deadzone=21,11 / fast_pskip=1 / chroma_qp_offset=-3 / threads=34 / lookahead_threads=5 / sliced_threads=0 / nr=150 / decimate=1 / interlaced=0 / bluray_compat=0 / constrained_intra=0 / bframes=8 / b_pyramid=2 / b_adapt=2 / b_bias=0 / direct=3 / weightb=1 / open_gop=0 / weightp=2 / keyint=120 / keyint_min=61 / scenecut=0 / intra_refresh=0 / rc_lookahead=120 / rc=crf / mbtree=1 / crf=18.0 / qcomp=0.60 / qpmin=0 / qpmax=69 / qpstep=4 / vbv_maxrate=15000 / vbv_bufsize=31250 / crf_max=0.0 / nal_hrd=vbr / filler=0 / ip_ratio=1.40 / aq=3:1.00
Language : English
Default : Yes
Forced : No
Color range : Limited
Color primaries : BT.709
Transfer characteristics : BT.709
Matrix coefficients : BT.709
Audio #1
ID : 2
Format : AC-3
Format/Info : Audio Coding 3
Mode extension : CM (complete main)
Format settings, Endianness : Big
Codec ID : A_AC3
Duration : 1 h 49 min
Bit rate mode : Constant
Bit rate : 192 kb/s
Channel(s) : 2 channels
Channel positions : Front: L R
Sampling rate : 48.0 kHz
Frame rate : 31.250 FPS (1536 spf)
Compression mode : Lossy
Stream size : 150 MiB (2%)
Title : DVO – Культура
Language : Russian
Default : Yes
Forced : No
Audio #2
ID : 3
Format : E-AC-3
Format/Info : Audio Coding 3
Format settings, Endianness : Big
Codec ID : A_EAC3
Duration : 1 h 49 min
Bit rate mode : Constant
Bit rate : 224 kb/s
Channel(s) : 2 channels
Channel positions : Front: L R
Sampling rate : 48.0 kHz
Frame rate : 187.500 FPS (256 spf)
Compression mode : Lossy
Stream size : 176 MiB (2%)
Title : Original
Language : English
Default : No
Forced : No
Text #1
ID : 4
Format : UTF-8
Codec ID : S_TEXT/UTF8
Codec ID/Info : UTF-8 Plain Text
Duration : 1 h 46 min
Bit rate : 67 b/s
Count of elements : 1405
Stream size : 52.5 KiB (0%)
Language : English
Default : No
Forced : No
Text #2
ID : 5
Format : UTF-8
Codec ID : S_TEXT/UTF8
Codec ID/Info : UTF-8 Plain Text
Duration : 1 h 47 min
Bit rate : 70 b/s
Count of elements : 1564
Stream size : 56.1 KiB (0%)
Title : SDH
Language : English
Default : No
Forced : No