Смерть в этом саду / La Mort en ce jardin / Death in the Garden (Луис Бунюэль / Luis Buñuel) [1956, Франция, Мексика, драма, приключения, WEB-DL 1080p] DVO (НТВ+) + Original Fre + Sub Eng


Год выпуска: 1956
Страна: Франция, Мексика
Жанр: драма, приключения
Продолжительность: 01:39:28
Перевод: Профессиональный (двухголосый закадровый) НТВ+
Оригинальная аудиодорожка: Французская
Субтитры: Английские
Режиссер: Луис Бунюэль / Luis Buñuel
В ролях: Симона Синьоре, Шарль Ванель, Жорж Маршаль, Мишель Пикколи, Мишель Жирардон
Описание:
Мексика. Правительство вводит драконовские законы на алмазных рудниках. В одном из поселков рабочие, возмущенные нововведениями, поднимают бунт. Полиция и армия безжалостно подавляют восстание. Спасаясь от кровавой бойни, несколько человек – бродяга Шарк, миссионер Лизарди, проститутка Джин, влюбленный в нее старатель Кастен и его дочь Мария – скрываются в непроходимых джунглях. Но самые страшные испытания для них только начинаются…
За русскую дорожку спасибо Tekilla.
| |
Качество: WEB-DL 1080p (SbR)
Контейнер: MKV
Видео: AVC (x264), 1800x1080 (1.67:1), 29.97 fps, 10623 kbps
Аудио 1: Русский AC3 2.0, 48 kHz, 192 kbps
Аудио 2: Французский EAC3 2.0, 48 kHz, 224 kbps
Скриншоты

MI
General
Unique ID : 247497203035344008253966775031539975183 (0xBA323A3A04A0EAC7B64271BF0F7C440F)
Complete name : La.mort.en.ce.jardin.1956.1080p.WEB-DL.DD2.0.H.264-SbR.mkv
Format : Matroska
Format version : Version 2
File size : 7.67 GiB
Duration : 1 h 39 min
Overall bit rate mode : Variable
Overall bit rate : 11.0 Mb/s
Movie name : La Mort en ce jardin / Смерть в этом саду (1956) – RuTracker
Encoded date : UTC 2016-10-13 19:24:12
Writing application : mkvmerge v9.4.2 ('So High') 64bit
Writing library : libebml v1.3.4 + libmatroska v1.4.5
Cover : Yes
Attachments : cover.jpeg
Video
ID : 1
Format : AVC
Format/Info : Advanced Video Codec
Format profile : High@L4
Format settings, CABAC : Yes
Format settings, ReFrames : 4 frames
Codec ID : V_MPEG4/ISO/AVC
Duration : 1 h 39 min
Bit rate mode : Variable
Bit rate : 10.4 Mb/s
Maximum bit rate : 15.0 Mb/s
Width : 1 800 pixels
Height : 1 080 pixels
Display aspect ratio : 5:3
Frame rate mode : Constant
Frame rate : 29.970 (30000/1001) FPS
Color space : YUV
Chroma subsampling : 4:2:0
Bit depth : 8 bits
Scan type : Progressive
Bits/(Pixel*Frame) : 0.179
Stream size : 7.23 GiB (94%)
Title : La.mort.en.ce.jardin.1956.1080p.WEB-DL.DD+2.0.H.264-SbR
Writing library : x264 core 148 r2623 d5b2374
Encoding settings : cabac=1 / ref=4 / deblock=1:-1:-1 / analyse=0x3:0x133 / me=umh / subme=9 / psy=1 / psy_rd=1.00:0.15 / mixed_ref=1 / me_range=24 / chroma_me=1 / trellis=2 / 8x8dct=1 / cqm=0 / deadzone=21,11 / fast_pskip=1 / chroma_qp_offset=-3 / threads=34 / lookahead_threads=5 / sliced_threads=0 / nr=150 / decimate=1 / interlaced=0 / bluray_compat=0 / constrained_intra=0 / bframes=8 / b_pyramid=2 / b_adapt=2 / b_bias=0 / direct=3 / weightb=1 / open_gop=0 / weightp=2 / keyint=150 / keyint_min=76 / scenecut=0 / intra_refresh=0 / rc_lookahead=150 / rc=crf / mbtree=1 / crf=18.0 / qcomp=0.60 / qpmin=0 / qpmax=69 / qpstep=4 / vbv_maxrate=15000 / vbv_bufsize=31250 / crf_max=0.0 / nal_hrd=vbr / filler=0 / ip_ratio=1.40 / aq=3:1.00
Language : French
Default : Yes
Forced : No
Color range : Limited
Color primaries : BT.709
Transfer characteristics : BT.709
Matrix coefficients : BT.709
Audio #1
ID : 2
Format : AC-3
Format/Info : Audio Coding 3
Mode extension : CM (complete main)
Format settings, Endianness : Big
Codec ID : A_AC3
Duration : 1 h 39 min
Bit rate mode : Constant
Bit rate : 192 kb/s
Channel(s) : 2 channels
Channel positions : Front: L R
Sampling rate : 48.0 kHz
Frame rate : 31.250 FPS (1536 spf)
Compression mode : Lossy
Stream size : 137 MiB (2%)
Title : DVO – НТВ+
Language : Russian
Default : Yes
Forced : No
Audio #2
ID : 3
Format : E-AC-3
Format/Info : Audio Coding 3
Format settings, Endianness : Big
Codec ID : A_EAC3
Duration : 1 h 39 min
Bit rate mode : Constant
Bit rate : 224 kb/s
Channel(s) : 2 channels
Channel positions : Front: L R
Sampling rate : 48.0 kHz
Frame rate : 187.500 FPS (256 spf)
Compression mode : Lossy
Stream size : 159 MiB (2%)
Title : Original
Language : French
Default : No
Forced : No
Text
ID : 4
Format : UTF-8
Codec ID : S_TEXT/UTF8
Codec ID/Info : UTF-8 Plain Text
Language : English
Default : No
Forced : No