Зверь с пятью пальцами / The Beast with Five Fingers / Il mistero delle 5 dita (Роберт Флори / Robert Florey) [1946, США, триллер, ужасы, DVD5 (Custom)] VO (den904) + Sub Rus + Original Eng


Страна: США
Студия: Warner
Жанр: триллер, ужасы
Год выпуска: 1946
Продолжительность: 01:28:25
Перевод: Одноголосый закадровый den904
Субтитры: русские contello (ред. serge
Оригинальная аудиодорожка: английский
Режиссер: Роберт Флори / Robert Florey
В ролях: Роберт Альда, Андреа Кинг, Питер Лорре, Виктор Франсен
Описание: В небольшой итальянской деревушке живет великий пианист Фрэнсис Инграм. Но он прикован к инвалидной коляске, так как правая часть его тела парализована. Он вынужден играть на пианино, используя только свою левую руку. Он приглашает своих компаньонов и друзей на ужин, где берет их в свидетели, подписывая завещание. Он безумно влюблен в свою медсестру Джулию, которая страстно увлечена его другом-музыкантом Брюсом Конрадом. У Инграма есть секретарь Хилари Каммингс, увлекающийся оккультными науками и астрологией, который прослужил ему много лет. Каммингс слышит разговор, в котором Джулия признается в своей любви Конраду. Каммингс рассказывает о нем Инграму, и тот приходит в бешенство. Ночью он просыпается, не находит рядом медсестры, отправляется на ее поиски и, естественно, падает с лестницы и погибает. Из Англии на похороны прибывают двоюродный брат музыканта и его племянник. Они с удивлением узнают, что умерший оставил все свое состояние Джулии. Тогда родственники решают договориться с адвокатом покойного Дюпре. Тот после похорон вынуждает Каммингса покинуть дом за его ненужностью. После этого происходят странные события: свет виден из могилы Инграма, в доме раздается музыка, которую любил покойный, на пианино находят кольцо, принадлежавшее Инграму. Вскоре обнаруживают мертвого Дюпре , который задушен рукой, похожей на руку пианиста. Полицейский Овидио не может ничего понять. Эксгумируют труп Инграма и обнаруживают отсутствие его левой руки. На самом деле это Каммингс подстроил эти ужасные сцены для того, чтобы остаться в доме. В конце концов, все заканчивается тем, что он сам пытается задушить себя, сойдя с ума…
Великолепная игра Питера Лорре и потрясающие трюки и спецэффекты. Особенно сильное впечатление производит живая отрезанная рука. Как жаль, что Роберт Флори за свою карьеру снял так мало фильмов. Отрезанная рука фигурирует во многих других фильмах ужасов, в частности, в картинах «Дом кошмаров доктора ужаса» (1965), «Рука» (1981), «Зловещие мертвецы-2» (1987), «Семейка Аддамс» (1991). Луис Бунюэль в своей автобиографии написал, что студия «Warner» наняла его, чтобы он написал сценарий фильма ужасов с участием отчлененной руки. Это последний фильм Питера Лорре для студии «Warner».
Доп. информация: Диск из собственной коллекции. Большое спасибо den904 за озвучку.
Бонусы: Разделение по главам отсутствует.
Сэмпл:
Тип релиза: DVD5 (Custom)
Контейнер: DVD-Video
Видео: NTSC 4:3 (720x480) VBR
Аудио: Russian (Dolby AC3, 192 Кбит/сек, 2 ch)
Аудио 2: English (Dolby AC3, 192 Кбит/сек, 2 ch)
Формат субтитров: prerendered (DVD/IDX+SUB)
DVDInfo
Size: 4.30 Gb ( 4 512 180 KBytes ) - DVD-5
Enabled regions: 1, 2, 3, 4, 5, 6, 7, 8
VTS_01 :
Play Length: 00:00:11
Video: NTSC 4:3 (720x480) VBR
Audio:
Not specified (Dolby AC3, 2 ch)
VTS_02 :
Play Length: 01:28:25
Video: NTSC 4:3 (720x480) VBR
Audio:
Russian (Dolby AC3, 2 ch)
English (Dolby AC3, 2 ch)
Subtitles:
Russian
VTS_03 :
Play Length: 00:02:04
Video: NTSC 4:3 (720x480) VBR
Audio:
English (Dolby AC3, 2 ch)
Menu Video:
NTSC 4:3 (720x480) VBR
Menu English Language Unit :
Root Menu
MediaInfo
Общее
Полное имя : D:\DVD ГОТОВЫЕ\The Beast with Five Fingers_1946\VIDEO_TS\VTS_02_1.VOB
Формат : MPEG-PS
Размер файла : 1024 Мбайт
Продолжительность : 20 м.
Режим общего битрейта : Переменный
Общий поток : 7081 Кбит/сек
Видео
Идентификатор : 224 (0xE0)
Формат : MPEG Video
Версия формата : Version 2
Профиль формата : Main@Main
Параметр BVOP формата : Да
Параметр матрицы формата : Выборочная
Параметр GOP формата : M=3, N=12
Продолжительность : 20 м.
Вид битрейта : Переменный
Битрейт : 6556 Кбит/сек
Максимальный битрейт : 8000 Кбит/сек
Ширина : 720 пикселей
Высота : 480 пикселей
Соотношение сторон : 4:3
Частота кадров : 23,976 (24000/1001) кадра/сек
Стандарт вещания : NTSC
Цветовое пространство : YUV
Субдискретизация насыщенности : 4:2:0
Битовая глубина : 8 бит
Тип развёртки : Прогрессивная
Порядок развёртки : 2:3 Pulldown
Метод сжатия : С потерями
Бит/(Пиксели*Кадры) : 0.791
Временной код первого кадра : 00:59:59:00
Оригинал временного кода : Group of pictures header
GOP, открыто/закрыто : Закрыто
Размер потока : 948 Мбайт (93%)
Основные цвета : BT.601 NTSC
Характеристики трансфера : BT.601
Коэффициенты матрицы : BT.601
Аудио #1
Идентификатор : 189 (0xBD)-128 (0x80)
Формат : AC-3
Формат/Информация : Audio Coding 3
Расширение режима : CM (complete main)
Параметр Endianness формата : Big
Режим смешивания : DVD-Video
Продолжительность : 20 м.
Вид битрейта : Постоянный
Битрейт : 192 Кбит/сек
Каналы : 2 канала
Расположение каналов : Front: L R
Частота : 48,0 КГц
Частота кадров : 31,250 кадров/сек (1536 spf)
Метод сжатия : С потерями
Размер потока : 27,8 Мбайт (3%)
Аудио #2
Идентификатор : 189 (0xBD)-129 (0x81)
Формат : AC-3
Формат/Информация : Audio Coding 3
Расширение режима : CM (complete main)
Параметр Endianness формата : Big
Режим смешивания : DVD-Video
Продолжительность : 20 м.
Вид битрейта : Постоянный
Битрейт : 192 Кбит/сек
Каналы : 2 канала
Расположение каналов : Front: L R
Частота : 48,0 КГц
Частота кадров : 31,250 кадров/сек (1536 spf)
Метод сжатия : С потерями
Размер потока : 27,8 Мбайт (3%)
Текст
Идентификатор : 189 (0xBD)-32 (0x20)
Формат : RLE
Формат/Информация : Run-length encoding
Режим смешивания : DVD-Video
Меню
Постеры
Скриншоты меню
Скриншоты