Так дорого моему сердцу / So Dear to My Heart (Харольд Д. Шустер, Хэмильтон Ласки / Harold D. Schuster, Hamilton Luske) [1948, США, мультипликация, семейное кино, музыкальный, драма, HDTVRip 1080p] AVO


Страна: США
Жанр: мультипликация, семейное кино, музыкальный, драма
Продолжительность: 01:22:06
Год выпуска: 1948
Перевод: Авторский (одноголосый закадровый) Антон Алексеев
Русские субтитры: нет
Режиссёр: Харольд Д. Шустер, Хэмильтон Ласки / Harold D. Schuster, Hamilton Luske
В ролях: Берл Айвз, Бьюла Бонди, Бобби Дрисколлl, Луана Паттен, Гарри Кэри, Рэймонд Бонд, Уолтер Содерлинг, Мэтт Уиллис
Описание: Начало 20-го века Индиана. На небольшой ферме живет мальчик Джерри и однажды там рождаются два маленьких ягненка, один белый другой черный. Мать отвергла черного агнца и Джерри стал заботиться о нем назвав его Дэнни (в честь знаменитых скачек Дэн Патч). Строгая бабушка Джерри против ягненка и все время говорит избавиться от него, единственным союзником мальчика стал кузнец дядя Хирам. Заветная мечта Джерри показать ягненка Дэнни на окружной ярмарке и поучаствовать в конкурсе, но бабушка категорически против, но с помощью дяди Хирама им удается уговорить сварливую и несговорчивую бабушку.
Качество: HDTVRip 1080p
Формат: MKV
Видео: MPEG4 AVC 1480 x 1080, 23.976 fps, 6 663 Kbps
Аудио: Русский AC3 48.0 KHz, 6 channels, 448 Kbps
Аудио 2: Английский AC3 48.0 KHz, 6 channels, 448 Kbps
Субтитры: отсутствуют
Подробные технические данные
General
Unique ID : 210037738479292364682356327108792736373 (0x9E03CC081E19B08F9C6DEF72CF56DA75)
Complete name : \F:\DISNEY\FILMS\1941-1950\1948 - So Dear to My Heart\So Dear to My Heart (1948) (HDTV Rip 1080p).mkv
Format : Matroska
Format version : Version 4 / Version 2
File size : 4.42 GiB
Duration : 1h 22mn
Overall bit rate : 7 713 Kbps
Movie name : So Dear to My Heart (1948) (HDTV Rip 1080p)
Encoded date : UTC 2016-02-08 11:28:23
Writing application : mkvmerge v8.8.0 ('Wind at my back') 32bit
Writing library : libebml v1.3.3 + libmatroska v1.4.4
Video
ID : 1
Format : AVC
Format/Info : Advanced Video Codec
Format profile : High@L4.1
Format settings, CABAC : Yes
Format settings, ReFrames : 5 frames
Codec ID : V_MPEG4/ISO/AVC
Duration : 1h 22mn
Bit rate : 6 663 Kbps
Width : 1 480 pixels
Height : 1 080 pixels
Display aspect ratio : 1.370
Frame rate mode : Constant
Frame rate : 23.976 fps
Color space : YUV
Chroma subsampling : 4:2:0
Bit depth : 8 bits
Scan type : Progressive
Bits/(Pixel*Frame) : 0.174
Stream size : 3.82 GiB (86%)
Title : HDTV Rip 1080p
Writing library : x264 core 148 r2638 7599210
Encoding settings : cabac=1 / ref=5 / deblock=1:0:0 / analyse=0x3:0x113 / me=umh / subme=8 / psy=1 / psy_rd=1.00:0.00 / mixed_ref=1 / me_range=16 / chroma_me=1 / trellis=1 / 8x8dct=1 / cqm=0 / deadzone=21,11 / fast_pskip=1 / chroma_qp_offset=-2 / threads=6 / lookahead_threads=1 / sliced_threads=0 / nr=0 / decimate=1 / interlaced=0 / bluray_compat=0 / constrained_intra=0 / bframes=3 / b_pyramid=2 / b_adapt=2 / b_bias=0 / direct=3 / weightb=1 / open_gop=0 / weightp=2 / keyint=250 / keyint_min=25 / scenecut=40 / intra_refresh=0 / rc_lookahead=50 / rc=crf / mbtree=1 / crf=17.0 / qcomp=0.60 / qpmin=0 / qpmax=69 / qpstep=4 / ip_ratio=1.40 / aq=1:1.00
Language : English
Default : Yes
Forced : No
Audio #1
ID : 2
Format : AC-3
Format/Info : Audio Coding 3
Mode extension : CM (complete main)
Format settings, Endianness : Big
Codec ID : A_AC3
Duration : 1h 22mn
Bit rate mode : Constant
Bit rate : 448 Kbps
Channel(s) : 6 channels
Channel positions : Front: L C R, Side: L R, LFE
Sampling rate : 48.0 KHz
Bit depth : 16 bits
Compression mode : Lossy
Delay relative to video : 28ms
Stream size : 263 MiB (6%)
Language : Russian
Default : Yes
Forced : No
Audio #2
ID : 3
Format : AC-3
Format/Info : Audio Coding 3
Mode extension : CM (complete main)
Format settings, Endianness : Big
Codec ID : A_AC3
Duration : 1h 22mn
Bit rate mode : Constant
Bit rate : 448 Kbps
Channel(s) : 6 channels
Channel positions : Front: L C R, Side: L R, LFE
Sampling rate : 48.0 KHz
Bit depth : 16 bits
Compression mode : Lossy
Delay relative to video : 31ms
Stream size : 263 MiB (6%)
Language : English
Default : No
Forced : No
Скриншоты