Нюрнбергский процесс / Judgment at Nuremberg (Стэнли Крамер / Stanley Kramer) [1961, США, историческая драма, HDTVRip] DVO (Культура) + Original Eng


Страна: США
Студия: Roxlom Films Inc
Жанр: историческая драма
Год выпуска: 1961
Продолжительность: 02:59:02
Перевод: Профессиональный (двухголосый закадровый) Культура
Субтитры: нет
Оригинальная аудиодорожка: английский
Режиссер: Стэнли Крамер / Stanley Kramer
В ролях: Спенсер Трэйси, Берт Ланкастер, Ричард Видмарк, Марлен Дитрих, Максимилиан Шелл, Джуди Гарленд, Монтгомери Клифт, Эд Биннс, Вернер Клемперер, Торбен Майер, Мартин Брандт, Уильям Шетнер, Кеннет МакКенна, Алан Бакстер, Вирджиния Кристин, Бен Райт, Джозеф Бернард, Джон Венграф, Карл Свенсон, Хауард Кейн, Отто Валдис, Ольга Фабиан, Пол Буш, Бернард Кейтс
Описание: Действие драмы Эбби Мэнна происходит в 1948 году в Нюрнберге во время процессов над нацистскими преступниками. Речь идет не о широко известных лидерах, а о юристах, служивших нацистскому режиму. Напряженная судебная драма сосредоточена вокруг председательствующего судьи (Спенсер Трэйси), который должен вынести важнейшее решение, и главного обвиняемого (Берт Ланкастер), поначалу молчаливого, сомневающегося, но в конце концов именно он раскрывает суть вопроса и признает свою вину. Максимилиан Шелл великолепен в роли одного из советников защиты, а Уидмарк очень хорош в роли прокурора. Марлен Дитрих убедительна в роли вдовы немецкого генерала-аристократа, повешенного за военные преступления. Шелл Получил "Оскара" за главную мужскую роль. "Оскаром" награжден сценарий. Номинантами на "Оскар" были режиссер Стэнли Крэймер, актер Монтгомери Клифт, актриса Джуди Гарлэнд. (Иванов М.)
II II II
Доп. информация:

Запись звука с т/к Культура и синхронизация vedigo
Качество видео: HDTVRip
Формат видео: AVI
Видео: Xvid 720x432 (1.667:1) 23.976fps Bit rate 1739Kbps b/p 0.233
Аудио 1: AC3 48.0 KHz 2ch. 192kbps rus dvo
Аудио 2: AC3 48.0 KHz 6ch. 384kbps eng
MediaInfo
Общее
Полное имя : E:\torrent\Judgment.at.Nuremberg.1961.HDTVRip.avi
Формат : AVI
Формат/Информация : Audio Video Interleave
Профиль формата : OpenDML
Размер файла : 2,92 Гбайт
Продолжительность : 2 ч. 59 м.
Общий поток : 2331 Кбит/сек
Программа кодирования : VirtualDubMod 1.5.10.3 (build 2550/release)
Библиотека кодирования : VirtualDubMod build 2550/release
Видео
Идентификатор : 0
Формат : MPEG-4 Visual
Профиль формата : Advanced Simple@L5
Параметр BVOP формата : 2
Параметр QPel формата : Нет
Параметр GMC формата : Без точки перехода
Параметр матрицы формата : Default (H.263)
Идентификатор кодека : XVID
Идентификатор кодека/Подсказка : XviD
Продолжительность : 2 ч. 59 м.
Битрейт : 1739 Кбит/сек
Ширина : 720 пикселей
Высота : 432 пикселя
Соотношение сторон : 1,667
Частота кадров : 23,976 кадра/сек
Цветовое пространство : YUV
Субдискретизация насыщенности : 4:2:0
Битовая глубина : 8 бит
Тип развёртки : Прогрессивная
Метод сжатия : С потерями
Бит/(Пиксели*Кадры) : 0.233
Размер потока : 2,17 Гбайт (75%)
Библиотека кодирования : XviD 1.2.1 (UTC 2008-12-04)
Аудио #1
Идентификатор : 1
Формат : AC-3
Формат/Информация : Audio Coding 3
Расширение режима : CM (complete main)
Параметр Endianness формата : Big
Идентификатор кодека : 2000
Продолжительность : 2 ч. 59 м.
Вид битрейта : Постоянный
Битрейт : 192 Кбит/сек
Каналы : 2 канала
Расположение каналов : Front: L R
Частота : 48,0 КГц
Битовая глубина : 16 бит
Метод сжатия : С потерями
Размер потока : 246 Мбайт (8%)
Выравнивание : Разделение по промежуткам
Продолжительность промежутка : 42 мс. (1,00 видеокадр)
Время предзагрузки промежутка : 500 мс.
Аудио #2
Идентификатор : 2
Формат : AC-3
Формат/Информация : Audio Coding 3
Расширение режима : CM (complete main)
Параметр Endianness формата : Big
Идентификатор кодека : 2000
Продолжительность : 2 ч. 59 м.
Вид битрейта : Постоянный
Битрейт : 384 Кбит/сек
Каналы : 6 каналов
Расположение каналов : Front: L C R, Side: L R, LFE
Частота : 48,0 КГц
Битовая глубина : 16 бит
Метод сжатия : С потерями
Размер потока : 492 Мбайт (16%)
Выравнивание : Разделение по промежуткам
Продолжительность промежутка : 42 мс. (1,00 видеокадр)
Время предзагрузки промежутка : 500 мс.
Скриншот c названием фильма
Скриншоты