(Canterbury Scene) [CD] Matching Mole (Soft Machine family) - Studio Discography (2013 Japan Mini LP Blu-spec CD2), FLAC (image+.cue), lossless


Жанр: Canterbury Scene
Носитель: CD (Mini LP Blu-spec CD2)
Страна-производитель диска: Japan
Год издания: 2013
Издатель (лейбл): Columbia/Sony Music Japan
Страна: UK
Аудиокодек: FLAC (*.flac)
Тип рипа: tracks+.cue
Битрейт аудио: lossless
Источник (релизер): ruskaval
Наличие сканов в содержимом раздачи:
Об издании
Matching Mole-1972-Matching Mole
"Cardboard sleeve (mini LP) reissue from Matching Mole features 2013 remastering and the high-fidelity Blu-spec CD2 format (compatible with standard CD players). Includes bonus tracks. The opening track, "O Caroline," is indicative of Wyatt at his best: art rock with a human face, a playful vocal, and soul. Much of the record is instrumental improvisation, though, with the humor largely confined to the song titles ("Instant Pussy," "Dedicated to Hugh, But You Weren't Listening"). For every nifty passage (the extended melancholy Mellotron solo on "Immediate Curtain," the goofy scat vocals on "Signed Curtain"), there's equal or greater instrumental patter. Some art rock devotees really get behind this album, but it doesn't count among the more enduring statements by the Canterbury crowd."
Matching Mole-1972-Matching Mole's Little Red Record
"Cardboard sleeve (mini LP) reissue from Matching Mole features 2013 remastering and the high-fidelity Blu-spec CD2 format (compatible with standard CD players). Includes bonus tracks. Maybe it's because Wyatt relinquished his firm upper hand on the songwriting (everybody in the band pens material) and production (Robert Fripp takes over), but this is a distinct comedown from Matching Mole's debut. The fusion rock chops assert themselves much more strongly on this largely instrumental set, though not to any great effect or purpose. It's not just difficult listening, but a bit of a bore, which is probably not what they intended. Another great song title, though, in "Starting in the Middle of the Day We Can Drink Our Politics Away."
Columbia/Sony Music Japan
Matching Mole (1972) #SICP 30321
01 - O Caroline
02 - Instant Pussy
03 - Signed Curtain
04 - Part Of The Dance
05 - Instant Kitten
06 - Dedicated To Hugh, But You Weren't Listening
07 - Beer As In Braindeer
08 - Immediate Curtain
Bonus tracks:
09 - O Caroline (Single Version)
10 - Signed Curtain (Single Version)
11 - Signed Curtain (Take Two)
12 - Part Of The Dance (Take One)
13 - Memories Membrane
14 - Horse
15 - Sandwich

Robert Wyatt - drums, mellotron, piano, voice
David Sinclair - piano, organ
Phil Miller - guitars
Bill MacCormick - bass

Dave MacRae - electric piano
TT - 01:20:16
Лог создания рипа
Exact Audio Copy V1.0 beta 3 from 29. August 2011
EAC extraction logfile from 14. November 2013, 21:04
Matching Mole / Matching Mole
Used drive : TSSTcorpCDDVDW SE-208DB Adapter: 7 ID: 0
Read mode : Secure
Utilize accurate stream : Yes
Defeat audio cache : Yes
Make use of C2 pointers : No
Read offset correction : 6
Overread into Lead-In and Lead-Out : No
Fill up missing offset samples with silence : Yes
Delete leading and trailing silent blocks : No
Null samples used in CRC calculations : Yes
Used interface : Native Win32 interface for Win NT & 2000
Gap handling : Appended to previous track
Used output format : User Defined Encoder
Selected bitrate : 1024 kBit/s
Quality : High
Add ID3 tag : No
Command line compressor : C:\Program Files (x86)\FLAC\flac.exe
Additional command line options : -8 -V -T "ARTIST=%artist%" -T "TITLE=%title%" -T "ALBUM=%albumtitle%" -T "DATE=%year%" -T "TRACKNUMBER=%tracknr%" -T "TOTALTRACKS=%numtracks%" -T "GENRE=%genre%" -T "ALBUMARTIST=%albumartist%" -T "ALBUM ARTIST=%albumartist%" -T "COMMENT=EAC Secure Mode, Test & Copy, AccurateRip, FLAC -8" %source%
TOC of the extracted CD
Track | Start | Length | Start sector | End sector
---------------------------------------------------------
1 | 0:00.00 | 5:04.46 | 0 | 22845
2 | 5:04.46 | 3:01.41 | 22846 | 36461
3 | 8:06.12 | 3:35.19 | 36462 | 52605
4 | 11:41.31 | 8:40.21 | 52606 | 91626
5 | 20:21.52 | 4:57.56 | 91627 | 113957
6 | 25:19.33 | 5:03.57 | 113958 | 136739
7 | 30:23.15 | 4:38.72 | 136740 | 157661
8 | 35:02.12 | 4:54.18 | 157662 | 179729
9 | 39:56.30 | 3:33.12 | 179730 | 195716
10 | 43:29.42 | 3:05.40 | 195717 | 209631
11 | 46:35.07 | 5:32.24 | 209632 | 234555
12 | 52:07.31 | 7:28.04 | 234556 | 268159
13 | 59:35.35 | 11:17.24 | 268160 | 318958
14 | 70:52.59 | 3:48.13 | 318959 | 336071
15 | 74:40.72 | 5:35.13 | 336072 | 361209
Track 1
Filename D:\_EAC\Matching Mole (Robert Wyatt) - Matching Mole (1972) {2013 Japan Mini LP Blu-spec CD2}\01 - O Caroline.wav
Pre-gap length 0:00:02.00
Peak level 97.7 %
Extraction speed 3.0 X
Track quality 100.0 %
Test CRC 2553C064
Copy CRC 2553C064
Track not present in AccurateRip database
Copy OK
Track 2
Filename D:\_EAC\Matching Mole (Robert Wyatt) - Matching Mole (1972) {2013 Japan Mini LP Blu-spec CD2}\02 - Instant Pussy.wav
Peak level 97.7 %
Extraction speed 3.1 X
Track quality 100.0 %
Test CRC 029D47D4
Copy CRC 029D47D4
Track not present in AccurateRip database
Copy OK
Track 3
Filename D:\_EAC\Matching Mole (Robert Wyatt) - Matching Mole (1972) {2013 Japan Mini LP Blu-spec CD2}\03 - Signed Curtain.wav
Peak level 97.7 %
Extraction speed 3.4 X
Track quality 100.0 %
Test CRC 45B69AB2
Copy CRC 45B69AB2
Track not present in AccurateRip database
Copy OK
Track 4
Filename D:\_EAC\Matching Mole (Robert Wyatt) - Matching Mole (1972) {2013 Japan Mini LP Blu-spec CD2}\04 - Part Of The Dance.wav
Peak level 97.7 %
Extraction speed 4.1 X
Track quality 100.0 %
Test CRC 7C34857B
Copy CRC 7C34857B
Track not present in AccurateRip database
Copy OK
Track 5
Filename D:\_EAC\Matching Mole (Robert Wyatt) - Matching Mole (1972) {2013 Japan Mini LP Blu-spec CD2}\05 - Instant Kitten.wav
Peak level 97.7 %
Extraction speed 4.3 X
Track quality 100.0 %
Test CRC 64E2F946
Copy CRC 64E2F946
Track not present in AccurateRip database
Copy OK
Track 6
Filename D:\_EAC\Matching Mole (Robert Wyatt) - Matching Mole (1972) {2013 Japan Mini LP Blu-spec CD2}\06 - Dedicated To Hugh, But You Weren't Listening.wav
Peak level 97.7 %
Extraction speed 3.8 X
Track quality 99.9 %
Test CRC BF447EA3
Copy CRC BF447EA3
Track not present in AccurateRip database
Copy OK
Track 7
Filename D:\_EAC\Matching Mole (Robert Wyatt) - Matching Mole (1972) {2013 Japan Mini LP Blu-spec CD2}\07 - Beer As In Braindeer.wav
Peak level 97.7 %
Extraction speed 4.7 X
Track quality 100.0 %
Test CRC 2B80BBA5
Copy CRC 2B80BBA5
Track not present in AccurateRip database
Copy OK
Track 8
Filename D:\_EAC\Matching Mole (Robert Wyatt) - Matching Mole (1972) {2013 Japan Mini LP Blu-spec CD2}\08 - Immediate Curtain.wav
Peak level 97.7 %
Extraction speed 4.9 X
Track quality 100.0 %
Test CRC ACE1BDCC
Copy CRC ACE1BDCC
Track not present in AccurateRip database
Copy OK
Track 9
Filename D:\_EAC\Matching Mole (Robert Wyatt) - Matching Mole (1972) {2013 Japan Mini LP Blu-spec CD2}\09 - O Caroline (Single Version).wav
Peak level 97.7 %
Extraction speed 4.8 X
Track quality 100.0 %
Test CRC 66027399
Copy CRC 66027399
Track not present in AccurateRip database
Copy OK
Track 10
Filename D:\_EAC\Matching Mole (Robert Wyatt) - Matching Mole (1972) {2013 Japan Mini LP Blu-spec CD2}\10 - Signed Curtain (Single Version).wav
Peak level 97.7 %
Extraction speed 4.9 X
Track quality 100.0 %
Test CRC 5D520FA6
Copy CRC 5D520FA6
Track not present in AccurateRip database
Copy OK
Track 11
Filename D:\_EAC\Matching Mole (Robert Wyatt) - Matching Mole (1972) {2013 Japan Mini LP Blu-spec CD2}\11 - Signed Curtain (Take Two).wav
Peak level 97.7 %
Extraction speed 4.6 X
Track quality 99.9 %
Test CRC 1EA92079
Copy CRC 1EA92079
Track not present in AccurateRip database
Copy OK
Track 12
Filename D:\_EAC\Matching Mole (Robert Wyatt) - Matching Mole (1972) {2013 Japan Mini LP Blu-spec CD2}\12 - Part Of The Dance (Take One).wav
Peak level 97.7 %
Extraction speed 5.8 X
Track quality 100.0 %
Test CRC C5CDE68C
Copy CRC C5CDE68C
Track not present in AccurateRip database
Copy OK
Track 13
Filename D:\_EAC\Matching Mole (Robert Wyatt) - Matching Mole (1972) {2013 Japan Mini LP Blu-spec CD2}\13 - Memories Membrane.wav
Peak level 97.7 %
Extraction speed 6.4 X
Track quality 100.0 %
Test CRC 5A2CA1B0
Copy CRC 5A2CA1B0
Track not present in AccurateRip database
Copy OK
Track 14
Filename D:\_EAC\Matching Mole (Robert Wyatt) - Matching Mole (1972) {2013 Japan Mini LP Blu-spec CD2}\14 - Horse.wav
Peak level 97.7 %
Extraction speed 5.9 X
Track quality 100.0 %
Test CRC B0E66EB7
Copy CRC B0E66EB7
Track not present in AccurateRip database
Copy OK
Track 15
Filename D:\_EAC\Matching Mole (Robert Wyatt) - Matching Mole (1972) {2013 Japan Mini LP Blu-spec CD2}\15 - Sandwich.wav
Peak level 97.7 %
Extraction speed 6.3 X
Track quality 100.0 %
Test CRC A39E0E2D
Copy CRC A39E0E2D
Track not present in AccurateRip database
Copy OK
None of the tracks are present in the AccurateRip database
No errors occurred
End of status report
==== Log checksum FAE2F2FB494627ACA15CE55F5A724027F9BC1529F315E3E981436D328278EF7F ====
Содержание индексной карты (.CUE)
REM GENRE Rock
REM DATE 2013
REM DISCID D012D00F
REM COMMENT "ExactAudioCopy v1.0b3"
PERFORMER "Matching Mole"
TITLE "Matching Mole"
FILE "01 - O Caroline.wav" WAVE
TRACK 01 AUDIO
TITLE "O Caroline"
PERFORMER "Matching Mole"
INDEX 01 00:00:00
FILE "02 - Instant Pussy.wav" WAVE
TRACK 02 AUDIO
TITLE "Instant Pussy"
PERFORMER "Matching Mole"
INDEX 01 00:00:00
FILE "03 - Signed Curtain.wav" WAVE
TRACK 03 AUDIO
TITLE "Signed Curtain"
PERFORMER "Matching Mole"
INDEX 01 00:00:00
FILE "04 - Part Of The Dance.wav" WAVE
TRACK 04 AUDIO
TITLE "Part Of The Dance"
PERFORMER "Matching Mole"
INDEX 01 00:00:00
FILE "05 - Instant Kitten.wav" WAVE
TRACK 05 AUDIO
TITLE "Instant Kitten"
PERFORMER "Matching Mole"
INDEX 01 00:00:00
FILE "06 - Dedicated To Hugh, But You Weren't Listening.wav" WAVE
TRACK 06 AUDIO
TITLE "Dedicated To Hugh, But You Weren't Listening"
PERFORMER "Matching Mole"
INDEX 01 00:00:00
FILE "07 - Beer As In Braindeer.wav" WAVE
TRACK 07 AUDIO
TITLE "Beer As In Braindeer"
PERFORMER "Matching Mole"
INDEX 01 00:00:00
FILE "08 - Immediate Curtain.wav" WAVE
TRACK 08 AUDIO
TITLE "Immediate Curtain"
PERFORMER "Matching Mole"
INDEX 01 00:00:00
FILE "09 - O Caroline (Single Version).wav" WAVE
TRACK 09 AUDIO
TITLE "O Caroline (Single Version)"
PERFORMER "Matching Mole"
INDEX 01 00:00:00
FILE "10 - Signed Curtain (Single Version).wav" WAVE
TRACK 10 AUDIO
TITLE "Signed Curtain (Single Version)"
PERFORMER "Matching Mole"
INDEX 01 00:00:00
FILE "11 - Signed Curtain (Take Two).wav" WAVE
TRACK 11 AUDIO
TITLE "Signed Curtain (Take Two)"
PERFORMER "Matching Mole"
INDEX 01 00:00:00
FILE "12 - Part Of The Dance (Take One).wav" WAVE
TRACK 12 AUDIO
TITLE "Part Of The Dance (Take One)"
PERFORMER "Matching Mole"
INDEX 01 00:00:00
FILE "13 - Memories Membrane.wav" WAVE
TRACK 13 AUDIO
TITLE "Memories Membrane"
PERFORMER "Matching Mole"
INDEX 01 00:00:00
FILE "14 - Horse.wav" WAVE
TRACK 14 AUDIO
TITLE "Horse"
PERFORMER "Matching Mole"
INDEX 01 00:00:00
FILE "15 - Sandwich.wav" WAVE
TRACK 15 AUDIO
TITLE "Sandwich"
PERFORMER "Matching Mole"
INDEX 01 00:00:00
Лог проверки качества
-----------------------
DON'T MODIFY THIS FILE
-----------------------
PERFORMER: auCDtect Task Manager, ver. 1.5.1RC6 build 1.5.1.7
Copyright (c) 2008-2010 y-soft. All rights reserved

ANALYZER: auCDtect: CD records authenticity detector, version 0.8.2
Copyright (c) 2004 Oleg Berngardt. All rights reserved.
Copyright (c) 2004 Alexander Djourik. All rights reserved.
FILE: 15 - Sandwich.flac
Size: 27910386 Hash: DDD0AE19B16C44DB3190A5CF6530345C Accuracy: -m0
Conclusion: CDDA 100%
Signature: B53A00B081B0DE66ED4255C79C1171A5B96AE1A6
FILE: 14 - Horse.flac
Size: 23585975 Hash: A91D15EA4B8E6014FA9518C4C78054F6 Accuracy: -m0
Conclusion: CDDA 100%
Signature: A7E12F6EF2BA05C8498E484614CA450C0C097921
FILE: 13 - Memories Membrane.flac
Size: 65608201 Hash: 8AB1075DAD7B7271D7FA8F5CDE355A69 Accuracy: -m0
Conclusion: CDDA 100%
Signature: B2E3A164F5B2313863037C59B6609356C1529576
FILE: 12 - Part Of The Dance (Take One).flac
Size: 47720590 Hash: 83858297B58CF65A0C6F0EB5036ECC97 Accuracy: -m0
Conclusion: CDDA 100%
Signature: 623778F481E6BFFADB0316614F9562CA9823819D
FILE: 11 - Signed Curtain (Take Two).flac
Size: 28511093 Hash: 959BAE8A2D7D2E229B0900E9B94C3014 Accuracy: -m0
Conclusion: CDDA 100%
Signature: 60A034632793CF4C27C8720D14A50D2871C93D06
FILE: 10 - Signed Curtain (Single Version).flac
Size: 16094213 Hash: 17485670AE6FB24E914724B38239524F Accuracy: -m0
Conclusion: CDDA 100%
Signature: 4F26B1F87A696976FA5F8DF2151BBBFE3ABB1D62
FILE: 09 - O Caroline (Single Version).flac
Size: 19474692 Hash: B224B5DAD6978D38A7FBF156E58814C3 Accuracy: -m0
Conclusion: CDDA 100%
Signature: CE52606499F07FC0B58D2298ACC294BFACE1C042
FILE: 08 - Immediate Curtain.flac
Size: 24782798 Hash: 0AB20207885AAD3520484DB76FAE4EF0 Accuracy: -m0
Conclusion: CDDA 100%
Signature: A6F7BE82E8B17B6E221399D68FFA89C0C4B67C09
FILE: 07 - Beer As In Braindeer.flac
Size: 27398208 Hash: CC8E95CF210D07F51C12F124C9D5962C Accuracy: -m0
Conclusion: CDDA 100%
Signature: CEB2AC1465B812F86DB10FC99063B2BF37DF8CF9
FILE: 06 - Dedicated To Hugh, But You Weren't Listening.flac
Size: 29620583 Hash: CA605A29EA344829E0726E5B595E944E Accuracy: -m0
Conclusion: CDDA 100%
Signature: D24B694190DA0EB146E33DF7567A9F350C8FD339
FILE: 05 - Instant Kitten.flac
Size: 28589002 Hash: E4FEB5B7E9B48AE7955872DCF19FA107 Accuracy: -m0
Conclusion: CDDA 100%
Signature: 8385C75057790C5E844FC14F67C5376A17ACF940
FILE: 04 - Part Of The Dance.flac
Size: 56233863 Hash: 7E9FBEFD05A729A4E2B233F2D698BE1E Accuracy: -m0
Conclusion: CDDA 100%
Signature: 0310D3F0F89DA1567D69774671D3EAF4A4CAE680
FILE: 03 - Signed Curtain.flac
Size: 17960708 Hash: BC8DCC10CE8F95F500311CA94912DD4B Accuracy: -m0
Conclusion: CDDA 100%
Signature: 7711437F5A9E3B96BD4874C9035F4B78A04F8178
FILE: 02 - Instant Pussy.flac
Size: 17773027 Hash: 2A79576FB0ACACDF9D43CB79ADB7E8C2 Accuracy: -m0
Conclusion: CDDA 100%
Signature: 4FD7871D6C10EB6778F662264C60191F1EB33547
FILE: 01 - O Caroline.flac
Size: 26359161 Hash: E404A2DB4CB73EAEE39CE40A4BBD042F Accuracy: -m0
Conclusion: CDDA 100%
Signature: 1E3A72CF5533BA072E88AED0D70A417CF37C5654
Скриншот спектра частот (выборочно)
Отчет CUETools
[CUETools log; Date: 09.12.2013 22:46:30; Version: 2.1.4]
[CTDB TOCID: 0IuWCrCYeuREHbrON92bJsjJcjc-] disk not present in database.
[AccurateRip ID: 00297121-01dbf854-d012d00f] disk not present in database.
Track Peak [ CRC32 ] [W/O NULL] [ LOG ]
-- 97,7 [3C7E9A96] [AD173A70]
01 97,7 [2553C064] [A7CA6FF3] CRC32
02 97,7 [029D47D4] [A89088C6] CRC32
03 97,7 [45B69AB2] [4A6FDBBF] CRC32
04 97,7 [7C34857B] [27488F5D] CRC32
05 97,7 [64E2F946] [838675FB] CRC32
06 97,7 [BF447EA3] [20F953FF] CRC32
07 97,7 [2B80BBA5] [154280F5] CRC32
08 97,7 [ACE1BDCC] [7526ECF1] CRC32
09 97,7 [66027399] [8F3D3F2C] CRC32
10 97,7 [5D520FA6] [18380024] CRC32
11 97,7 [1EA92079] [67557A31] CRC32
12 97,7 [C5CDE68C] [D2893E5D] CRC32
13 97,7 [5A2CA1B0] [E804D25A] CRC32
14 97,7 [B0E66EB7] [8E87C340] CRC32
15 97,7 [A39E0E2D] [41C0F78F] CRC32
Matching Mole's Little Red Record (1972) #SICP 30322
01 - Starting In The Middle Of The Day We Can Drink Our Politics Away
02 - Marchides
03 - Nan True's Hole
04 - Righteous Rhumba
05 - Brandy As In Benj
06 - Gloria Gloom
07 - God Song
08 - Flora Fidgit
09 - Smoke Signal
Bonus tracks:
10 - Starting In The Middle Of The Day We Can Drink Our Politics Away (Take One)
11 - Flora Fidgit (Take Eight)
12 - Smoke Signal (Take Four)
13 - Mutter

Robert Wyatt - drums, voice
David MacRae - grand piano, electric piano, Hammond organ
Phil Miller - guitars
Bill MacCormick - bass

Brian Eno - V.C.S.3 synthesizer
TT - 01:02:47
Лог создания рипа
Exact Audio Copy V1.0 beta 3 from 29. August 2011
EAC extraction logfile from 19. November 2013, 23:49
Matching Mole / Matching Mole's Little Red Record
Used drive : TSSTcorpCDDVDW SE-208DB Adapter: 7 ID: 0
Read mode : Secure
Utilize accurate stream : Yes
Defeat audio cache : Yes
Make use of C2 pointers : No
Read offset correction : 6
Overread into Lead-In and Lead-Out : No
Fill up missing offset samples with silence : Yes
Delete leading and trailing silent blocks : No
Null samples used in CRC calculations : Yes
Used interface : Native Win32 interface for Win NT & 2000
Gap handling : Appended to previous track
Used output format : User Defined Encoder
Selected bitrate : 1024 kBit/s
Quality : High
Add ID3 tag : No
Command line compressor : C:\Program Files (x86)\FLAC\flac.exe
Additional command line options : -8 -V -T "ARTIST=%artist%" -T "TITLE=%title%" -T "ALBUM=%albumtitle%" -T "DATE=%year%" -T "TRACKNUMBER=%tracknr%" -T "TOTALTRACKS=%numtracks%" -T "GENRE=%genre%" -T "ALBUMARTIST=%albumartist%" -T "ALBUM ARTIST=%albumartist%" -T "COMMENT=EAC Secure Mode, Test & Copy, AccurateRip, FLAC -8" %source%
TOC of the extracted CD
Track | Start | Length | Start sector | End sector
---------------------------------------------------------
1 | 0:00.00 | 2:30.64 | 0 | 11313
2 | 2:30.64 | 8:25.05 | 11314 | 49193
3 | 10:55.69 | 3:36.54 | 49194 | 65447
4 | 14:32.48 | 2:50.39 | 65448 | 78236
5 | 17:23.12 | 4:24.30 | 78237 | 98066
6 | 21:47.42 | 8:06.37 | 98067 | 134553
7 | 29:54.04 | 2:59.36 | 134554 | 148014
8 | 32:53.40 | 3:27.16 | 148015 | 163555
9 | 36:20.56 | 6:41.61 | 163556 | 193691
10 | 43:02.42 | 2:53.48 | 193692 | 206714
11 | 45:56.15 | 6:39.48 | 206715 | 236687
12 | 52:35.63 | 6:45.58 | 236688 | 267120
13 | 59:21.46 | 3:25.42 | 267121 | 282537
Track 1
Filename D:\_EAC\Matching Mole (Robert Wyatt) - Matching Mole's Little Red Record (1972) {2013 Japan Mini LP Blu-spec CD2}\01 - Starting In The Middle Of The Day We Can Drink Our Politics Away.wav
Pre-gap length 0:00:02.00
Peak level 97.7 %
Extraction speed 2.5 X
Track quality 100.0 %
Test CRC 0A7D1B70
Copy CRC 0A7D1B70
Track not present in AccurateRip database
Copy OK
Track 2
Filename D:\_EAC\Matching Mole (Robert Wyatt) - Matching Mole's Little Red Record (1972) {2013 Japan Mini LP Blu-spec CD2}\02 - Marchides.wav
Peak level 97.7 %
Extraction speed 3.5 X
Track quality 100.0 %
Test CRC 3B43752F
Copy CRC 3B43752F
Track not present in AccurateRip database
Copy OK
Track 3
Filename D:\_EAC\Matching Mole (Robert Wyatt) - Matching Mole's Little Red Record (1972) {2013 Japan Mini LP Blu-spec CD2}\03 - Nan True's Hole.wav
Peak level 97.7 %
Extraction speed 3.6 X
Track quality 100.0 %
Test CRC 0093F7A6
Copy CRC 0093F7A6
Track not present in AccurateRip database
Copy OK
Track 4
Filename D:\_EAC\Matching Mole (Robert Wyatt) - Matching Mole's Little Red Record (1972) {2013 Japan Mini LP Blu-spec CD2}\04 - Righteous Rhumba.wav
Peak level 97.7 %
Extraction speed 3.6 X
Track quality 100.0 %
Test CRC 8F637C36
Copy CRC 8F637C36
Track not present in AccurateRip database
Copy OK
Track 5
Filename D:\_EAC\Matching Mole (Robert Wyatt) - Matching Mole's Little Red Record (1972) {2013 Japan Mini LP Blu-spec CD2}\05 - Brandy As In Benj.wav
Peak level 97.7 %
Extraction speed 4.1 X
Track quality 100.0 %
Test CRC 2786A792
Copy CRC 2786A792
Track not present in AccurateRip database
Copy OK
Track 6
Filename D:\_EAC\Matching Mole (Robert Wyatt) - Matching Mole's Little Red Record (1972) {2013 Japan Mini LP Blu-spec CD2}\06 - Gloria Gloom.wav
Peak level 97.7 %
Extraction speed 4.7 X
Track quality 100.0 %
Test CRC 559E2226
Copy CRC 559E2226
Track not present in AccurateRip database
Copy OK
Track 7
Filename D:\_EAC\Matching Mole (Robert Wyatt) - Matching Mole's Little Red Record (1972) {2013 Japan Mini LP Blu-spec CD2}\07 - God Song.wav
Peak level 97.7 %
Extraction speed 4.4 X
Track quality 100.0 %
Test CRC CD6E815E
Copy CRC CD6E815E
Track not present in AccurateRip database
Copy OK
Track 8
Filename D:\_EAC\Matching Mole (Robert Wyatt) - Matching Mole's Little Red Record (1972) {2013 Japan Mini LP Blu-spec CD2}\08 - Flora Fidgit.wav
Peak level 97.7 %
Extraction speed 4.6 X
Track quality 100.0 %
Test CRC CB932CBB
Copy CRC CB932CBB
Track not present in AccurateRip database
Copy OK
Track 9
Filename D:\_EAC\Matching Mole (Robert Wyatt) - Matching Mole's Little Red Record (1972) {2013 Japan Mini LP Blu-spec CD2}\09 - Smoke Signal.wav
Peak level 97.7 %
Extraction speed 5.2 X
Track quality 100.0 %
Test CRC CF1F2F8C
Copy CRC CF1F2F8C
Track not present in AccurateRip database
Copy OK
Track 10
Filename D:\_EAC\Matching Mole (Robert Wyatt) - Matching Mole's Little Red Record (1972) {2013 Japan Mini LP Blu-spec CD2}\10 - Starting In The Middle Of The Day We Can Drink Our Politics Away (Take One).wav
Pre-gap length 0:00:03.35
Peak level 97.1 %
Extraction speed 3.6 X
Track quality 99.9 %
Test CRC F5ED926F
Copy CRC F5ED926F
Track not present in AccurateRip database
Copy OK
Track 11
Filename D:\_EAC\Matching Mole (Robert Wyatt) - Matching Mole's Little Red Record (1972) {2013 Japan Mini LP Blu-spec CD2}\11 - Flora Fidgit (Take Eight).wav
Pre-gap length 0:00:02.16
Peak level 97.7 %
Extraction speed 5.7 X
Track quality 100.0 %
Test CRC B4CFFEF9
Copy CRC B4CFFEF9
Track not present in AccurateRip database
Copy OK
Track 12
Filename D:\_EAC\Matching Mole (Robert Wyatt) - Matching Mole's Little Red Record (1972) {2013 Japan Mini LP Blu-spec CD2}\12 - Smoke Signal (Take Four).wav
Pre-gap length 0:00:01.39
Peak level 97.7 %
Extraction speed 5.8 X
Track quality 100.0 %
Test CRC D82BB2AC
Copy CRC D82BB2AC
Track not present in AccurateRip database
Copy OK
Track 13
Filename D:\_EAC\Matching Mole (Robert Wyatt) - Matching Mole's Little Red Record (1972) {2013 Japan Mini LP Blu-spec CD2}\13 - Mutter.wav
Pre-gap length 0:00:01.18
Peak level 97.7 %
Extraction speed 5.6 X
Track quality 100.0 %
Test CRC 6C25AB77
Copy CRC 6C25AB77
Track not present in AccurateRip database
Copy OK
None of the tracks are present in the AccurateRip database
No errors occurred
End of status report
==== Log checksum CB9DE5CA456F121CA2DA0C37CA81C25A0A1BB4BB95E9F396B389498899B5E311 ====
Содержание индексной карты (.CUE)
REM GENRE Rock
REM DATE 2013
REM DISCID CA0EB70D
REM COMMENT "ExactAudioCopy v1.0b3"
PERFORMER "Matching Mole"
TITLE "Matching Mole's Little Red Record"
FILE "01 - Starting In The Middle Of The Day We Can Drink Our Politics Away.wav" WAVE
TRACK 01 AUDIO
TITLE "Starting In The Middle Of The Day We Can Drink Our Politics Away"
PERFORMER "Matching Mole"
INDEX 01 00:00:00
FILE "02 - Marchides.wav" WAVE
TRACK 02 AUDIO
TITLE "Marchides"
PERFORMER "Matching Mole"
INDEX 01 00:00:00
FILE "03 - Nan True's Hole.wav" WAVE
TRACK 03 AUDIO
TITLE "Nan True's Hole"
PERFORMER "Matching Mole"
INDEX 01 00:00:00
FILE "04 - Righteous Rhumba.wav" WAVE
TRACK 04 AUDIO
TITLE "Righteous Rhumba"
PERFORMER "Matching Mole"
INDEX 01 00:00:00
FILE "05 - Brandy As In Benj.wav" WAVE
TRACK 05 AUDIO
TITLE "Brandy As In Benj"
PERFORMER "Matching Mole"
INDEX 01 00:00:00
FILE "06 - Gloria Gloom.wav" WAVE
TRACK 06 AUDIO
TITLE "Gloria Gloom"
PERFORMER "Matching Mole"
INDEX 01 00:00:00
FILE "07 - God Song.wav" WAVE
TRACK 07 AUDIO
TITLE "God Song"
PERFORMER "Matching Mole"
INDEX 01 00:00:00
FILE "08 - Flora Fidgit.wav" WAVE
TRACK 08 AUDIO
TITLE "Flora Fidgit"
PERFORMER "Matching Mole"
INDEX 01 00:00:00
FILE "09 - Smoke Signal.wav" WAVE
TRACK 09 AUDIO
TITLE "Smoke Signal"
PERFORMER "Matching Mole"
INDEX 01 00:00:00
TRACK 10 AUDIO
TITLE "Starting In The Middle Of The Day We Can Drink Our Politics Away (Take One)"
PERFORMER "Matching Mole"
INDEX 00 06:38:26
FILE "10 - Starting In The Middle Of The Day We Can Drink Our Politics Away (Take One).wav" WAVE
INDEX 01 00:00:00
TRACK 11 AUDIO
TITLE "Flora Fidgit (Take Eight)"
PERFORMER "Matching Mole"
INDEX 00 02:51:32
FILE "11 - Flora Fidgit (Take Eight).wav" WAVE
INDEX 01 00:00:00
TRACK 12 AUDIO
TITLE "Smoke Signal (Take Four)"
PERFORMER "Matching Mole"
INDEX 00 06:38:09
FILE "12 - Smoke Signal (Take Four).wav" WAVE
INDEX 01 00:00:00
TRACK 13 AUDIO
TITLE "Mutter"
PERFORMER "Matching Mole"
INDEX 00 06:44:40
FILE "13 - Mutter.wav" WAVE
INDEX 01 00:00:00
Лог проверки качества
-----------------------
DON'T MODIFY THIS FILE
-----------------------
PERFORMER: auCDtect Task Manager, ver. 1.5.1RC6 build 1.5.1.7
Copyright (c) 2008-2010 y-soft. All rights reserved

ANALYZER: auCDtect: CD records authenticity detector, version 0.8.2
Copyright (c) 2004 Oleg Berngardt. All rights reserved.
Copyright (c) 2004 Alexander Djourik. All rights reserved.
FILE: 13 - Mutter.flac
Size: 14300069 Hash: 9118621F61835DECD2AD38C7A11F6D37 Accuracy: -m0
Conclusion: CDDA 100%
Signature: F6ACF3C6EAE1D036554DF99AB0731A93BEB5C669
FILE: 12 - Smoke Signal (Take Four).flac
Size: 37332271 Hash: EE977774CAB3C6C9DFE4AC1D4D792ED5 Accuracy: -m0
Conclusion: CDDA 99%
Signature: B86DBC708F455D5A5D046A89AC053E48788D69F8
FILE: 11 - Flora Fidgit (Take Eight).flac
Size: 45149452 Hash: 19C320057A13A81BE84B4C15109011D5 Accuracy: -m0
Conclusion: CDDA 100%
Signature: 2C798E01ABC1B67B88E2308C396D6876D2A6C932
FILE: 10 - Starting In The Middle Of The Day We Can Drink Our Politics Away (Take One).flac
Size: 17114176 Hash: CD8BE33D5A3065BF215D7D0493A79F68 Accuracy: -m0
Conclusion: CDDA 100%
Signature: 916B2F70A843ECC8B873CA6FC48D06EFFCC5BF6E
FILE: 09 - Smoke Signal.flac
Size: 37708085 Hash: A0860240739A895BC1F92A673700DD72 Accuracy: -m0
Conclusion: CDDA 100%
Signature: D589C61659EC7ED39C024C93381BF5AD434223DF
FILE: 08 - Flora Fidgit.flac
Size: 22898051 Hash: C96A0091F5E8EC5C74ADEE32D5DC8E1F Accuracy: -m0
Conclusion: CDDA 100%
Signature: A5256DFB8469C9D1A591A64C66641012B9FF272A
FILE: 07 - God Song.flac
Size: 17189585 Hash: E8ECD3590BDE0563ACD83AA9A8B7AE2D Accuracy: -m0
Conclusion: CDDA 85%
Signature: 1D5CC4C41DFAE250F7164FD01F2370A66C34FF21
FILE: 06 - Gloria Gloom.flac
Size: 44379835 Hash: E6E3399ADF01300E7FDCC17785CD8744 Accuracy: -m0
Conclusion: CDDA 92%
Signature: 83F373F14C2892B7D1F6126863DEA3C74E5DA0B0
FILE: 05 - Brandy As In Benj.flac
Size: 31038597 Hash: 393BE793439576F3C9EE85EAE23BF660 Accuracy: -m0
Conclusion: CDDA 100%
Signature: 45374C8B48FA23F61589D0CD8476208B0CA4E6A1
FILE: 04 - Righteous Rhumba.flac
Size: 20140156 Hash: 55EEBAD44B7AFE18769A3E4D3B779A33 Accuracy: -m0
Conclusion: CDDA 100%
Signature: D245B93FF0BB52D9F76AB0DEBA1AFACE68AE07BA
FILE: 03 - Nan True's Hole.flac
Size: 23937175 Hash: FDEE79F3EE2D9742CC00BD62453FC321 Accuracy: -m0
Conclusion: CDDA 100%
Signature: F935ADF3C33B8EA0EE0CA4503F6A912C9DDBE7BD
FILE: 02 - Marchides.flac
Size: 57193603 Hash: D6C30A1A1425051475A6B019BB1AAD8B Accuracy: -m0
Conclusion: CDDA 100%
Signature: ED3092246DEB91E84D59AC4036207A2EF8258344
FILE: 01 - Starting In The Middle Of The Day We Can Drink Our Politics Away.flac
Size: 15849712 Hash: AD35C5074C128CB06332F307F5A0B1F2 Accuracy: -m0
Conclusion: CDDA 100%
Signature: D73A1931CF62E98C49329C0E6026A11AC3D800AA
Скриншот спектра частот (выборочно)
Отчет CUETools
[CUETools log; Date: 09.12.2013 22:50:24; Version: 2.1.4]
[CTDB TOCID: HuQL14sVBtbKmGmjntbimZwgXm0-] disk not present in database.
[AccurateRip ID: 001d8723-01295fe2-ca0eb70d] disk not present in database.
Track Peak [ CRC32 ] [W/O NULL] [ LOG ]
-- 97,7 [28664421] [CF59A3E3]
01 97,7 [0A7D1B70] [9913FEF8] CRC32
02 97,7 [3B43752F] [32460D3E] CRC32
03 97,7 [0093F7A6] [23177B6A] CRC32
04 97,7 [8F637C36] [80F3F129] CRC32
05 97,7 [2786A792] [7F7CD03A] CRC32
06 97,7 [559E2226] [0D78F382] CRC32
07 97,7 [CD6E815E] [B873AAA4] CRC32
08 97,7 [CB932CBB] [D8CAB966] CRC32
09 97,7 [CF1F2F8C] [1762C573] CRC32
10 97,1 [F5ED926F] [0F0DD968] CRC32
11 97,7 [B4CFFEF9] [88E3F548] CRC32
12 97,7 [D82BB2AC] [25EE3C37] CRC32
13 97,7 [6C25AB77] [BB745633] CRC32