(Rock, Rock-n-Roll) The Beatles - Reunion Jams 1974, 1994 [bootleg] - 2005, WavPack (image+.cue), lossless


Жанр: Rock-n-Roll
Носитель: CD
Страна-производитель диска: Великобритания
Год издания: 2005
Издатель (лейбл): unknown
Аудиокодек: WavPack (*.wv)
Тип рипа: image+.cue
Битрейт аудио: lossless
Продолжительность: 37:00
Источник (релизер): найдено в фанатских блогах
Наличие сканов в содержимом раздачи: нет
Треклист:
A Toot And A Snore in '74:
1. A Toot And A Snore
2. Blusey Jam Session
3. Studio Talk
4. Lucille
5. Nightmares
6. Stand By Me I
7. Stand By Me II
8. Stand By Me III
9. Medley: Cupid / Chain Gang / Take This Hammer
Anthology Jam 1994:
10. Raunchy
11. Thinking Of Linking
12. Blue Moon of Kentucky
13. Baby, What Do You Want Me To Do
14. I Will
15. Dera Duhn
16. Ain't She Sweet
Лог создания рипа
Exact Audio Copy V0.99 prebeta 4 from 23. January 2008
EAC extraction logfile from 21. June 2008, 15:26
The Beatles / Reunion Jams
Used drive : SONY CD-RW CRX225E Adapter: 0 ID: 1
Read mode : Secure
Utilize accurate stream : Yes
Defeat audio cache : Yes
Make use of C2 pointers : No
Read offset correction : 6
Overread into Lead-In and Lead-Out : No
Fill up missing offset samples with silence : Yes
Delete leading and trailing silent blocks : No
Null samples used in CRC calculations : Yes
Used interface : Installed external ASPI interface
Used output format : Internal WAV Routines
Sample format : 44.100 Hz; 16 Bit; Stereo
TOC of the extracted CD
Track | Start | Length | Start sector | End sector
---------------------------------------------------------
1 | 0:00.00 | 0:25.05 | 0 | 1879
2 | 0:25.05 | 2:31.31 | 1880 | 13235
3 | 2:56.36 | 2:38.02 | 13236 | 25087
4 | 5:34.38 | 5:56.44 | 25088 | 51831
5 | 11:31.07 | 2:37.37 | 51832 | 63643
6 | 14:08.44 | 2:16.56 | 63644 | 73899
7 | 16:25.25 | 3:39.07 | 73900 | 90331
8 | 20:04.32 | 6:02.51 | 90332 | 117532
9 | 26:07.08 | 3:08.61 | 117533 | 131693
10 | 29:15.69 | 1:35.66 | 131694 | 138884
11 | 30:51.60 | 1:16.27 | 138885 | 144611
12 | 32:08.12 | 1:17.56 | 144612 | 150442
13 | 33:25.68 | 1:45.32 | 150443 | 158349
14 | 35:11.25 | 0:29.20 | 158350 | 160544
15 | 35:40.45 | 0:36.72 | 160545 | 163316
16 | 36:17.42 | 0:42.39 | 163317 | 166505
Range status and errors
Selected range
Filename D:\The Beatles - Reunion Jams\The Beatles - Reunion Jams.wav
Peak level 98.9 %
Range quality 100.0 %
Copy CRC F026F994
Copy OK
No errors occurred
End of status report
Скриншот спектра частот
Доп. информация: Сборник из двух совместных джемов, сыгранных музыкантами Битлз после распада.
Об альбоме (сборнике)
Часть первая: запись 28 марта 1974-го года, изданная отдельно на бутлеге A Toot and A Snore in '74. В этом варианте у неё нормализована громкость, первое же издание было очень тихим. Это единственная совместная запись Джона Леннона и Пола МакКартни после их ссоры и распада группы.
Второй джем записан 25 июня 1994-го года во время съёмок фильма "Антология". Вместе играют Пол, Джордж и Ринго.
В целом то и другое звучит немузыкально, но обе записи ценны как исторические документы.