Война и мир / War and Peace (Кинг Видор / King Vidor, Марио Сольдати / Mario Soldati) [1956, США, Италия, драма, мелодрама, военный, BDRip 1080p] Dub + MVO + Original Eng + Sub Rus, Eng

War and Peace«Conflicts, Loves, Passions, Drama, You Live Through a Supreme Experience as 'War and Peace' Comes Alive On The Screen!»
Страна: США, Италия
Жанр: драма, мелодрама, военный
Год выпуска: 1956
Продолжительность: 03:28:22
Перевод 1: Профессиональный (полное дублирование) Советский дубляж
Перевод 2: Профессиональный (многоголосый, закадровый)
Оригинальная аудиодорожка: английский
Субтитры: русские, английские, английские (SDH)
Режиссер: Кинг Видор / King Vidor, Марио Сольдати / Mario Soldati
В ролях: Одри Хепберн, Генри Фонда, Мел Феррер, Витторио Гассман, Херберт Лом, Оскар Хомолка, Анита Экберг, Хельмут Дантин, Туллио Карминати, Бэрри Джонс, Милли Витале, Лиа Зайдль
Описание: Драма, номинированная на Оскар в 1957 году, рассказывает о международном конфликте, опасных приключениях, захватывающей интриге и трагической любви на фоне широкомасштабного вторжения Наполеона в Россию.



: - Рекомендуется присутствие родителей
Доп. Информация

Сценарий: Бриджет Боланд / Bridget Boland, Роберт Уэстерби / Robert Westerby, Кинг Видор / King Vidor, Марио Камерини / Mario Camerini, Эннио Де Кончини / Ennio De Concini
Продюсер: Дино Де Лаурентис / Dino De Laurentiis, Карло Понти / Carlo Ponti
Оператор: Джек Кардифф / Jack Cardiff
Композитор: Нино Рота / Nino Rota
Бюджет: $6 000 000
Сборы в США: $12 500 000
Мировая премьера: 21 августа 1956

Качество: BDRip 1080p (Исходник BD Remux)
Контейнер: MKV
Видео: AVC;1920x1080 (16:9);13697 Kbps;23,976 fps;0,276 bpp
Аудио №1: русский / AC3 / 2.0 / 48 kHz / 192 kbps / 16 bit || DUB
Аудио №2: русский / AC3 / 2.0 / 48 kHz / 192 kbps / 16 bit || MVO
Аудио №3: английский / AC3 / 2.0 / 48 kHz / 224 kbps / 16 bit
Формат субтитров: softsub (SRT)
Навигация по главам: есть
Знаете ли Вы, что...
  1. Марлон Брандо отказался играть Пьера Безухова, так как не хотел работать с Одри Хепберн.
  2. На роль Пьера Одри Хепберн рекомендовала своего партнера по «Римским каникулам» - Грегори Пека, которого в итоге сыграл Генри Фонда.
  3. Через некоторое время после выхода фильма Генри Фонда признался в том, что знал о значительной разнице в возрасте между ним и его персонажем Пьером Безуховым и что снялся в картине только из-за денег.
  4. Голоса актрис Мэй Бритт и Аниты Экберг были дублированы другими людьми.
  5. еще 1 факт
Media Info
Общее
Уникальный идентификатор : 243250461268623643832620664095844546914 (0xB70055B12612A39CB534936A0D873962)
Полное имя : C:\Темп 1\War.and.Peace.1956.BDRip.1080p.mkv
Формат : Matroska
Версия формата : Version 2
Размер файла : 21,2 Гбайт
Продолжительность : 3 ч. 28 м.
Общий поток : 14,6 Мбит/сек
Дата кодирования : UTC 2013-11-10 21:32:27
Программа кодирования : mkvmerge v5.8.0 ('No Sleep / Pillow') built on Sep 2 2012 15:37:04
Библиотека кодирования : libebml v1.2.3 + libmatroska v1.3.0
Видео
Идентификатор : 1
Формат : AVC
Формат/Информация : Advanced Video Codec
Профиль формата : High@L4.1
Параметр CABAC формата : Да
Параметр ReFrames формата : 4 кадра
Идентификатор кодека : V_MPEG4/ISO/AVC
Продолжительность : 3 ч. 28 м.
Битрейт : 13,7 Мбит/сек
Ширина : 1920 пикселей
Высота : 1080 пикселей
Соотношение сторон : 16:9
Режим частоты кадров : Постоянный
Частота кадров : 23,976 кадра/сек
Цветовое пространство : YUV
Субдискретизация насыщенности : 4:2:0
Битовая глубина : 8 бит
Тип развёртки : Прогрессивная
Бит/(Пиксели*Кадры) : 0.276
Размер потока : 19,9 Гбайт (94%)
Библиотека кодирования : x264 core 138 r2358 9e941d1
Настройки программы : cabac=1 / ref=4 / deblock=1:-1:-1 / analyse=0x3:0x113 / me=umh / subme=10 / psy=1 / psy_rd=1.00:0.15 / mixed_ref=1 / me_range=48 / chroma_me=1 / trellis=2 / 8x8dct=1 / cqm=0 / deadzone=21,11 / fast_pskip=1 / chroma_qp_offset=-3 / threads=12 / lookahead_threads=3 / sliced_threads=0 / nr=0 / decimate=1 / interlaced=0 / bluray_compat=0 / constrained_intra=0 / bframes=11 / b_pyramid=2 / b_adapt=2 / b_bias=0 / direct=3 / weightb=1 / open_gop=0 / weightp=2 / keyint=250 / keyint_min=24 / scenecut=40 / intra_refresh=0 / rc_lookahead=40 / rc=crf / mbtree=0 / crf=18.0 / qcomp=0.60 / qpmin=0 / qpmax=69 / qpstep=4 / vbv_maxrate=50000 / vbv_bufsize=62500 / crf_max=0.0 / nal_hrd=none / ip_ratio=1.40 / pb_ratio=1.30 / aq=2:1.00
Язык : English
Default : Да
Forced : Нет
Аудио #1
Идентификатор : 2
Формат : AC-3
Формат/Информация : Audio Coding 3
Расширение режима : CM (complete main)
Параметр Endianness формата : Big
Идентификатор кодека : A_AC3
Продолжительность : 3 ч. 28 м.
Вид битрейта : Постоянный
Битрейт : 192 Кбит/сек
Каналы : 2 канала
Расположение каналов : Front: L R
Частота : 48,0 КГц
Битовая глубина : 16 бит
Метод сжатия : С потерями
Размер потока : 286 Мбайт (1%)
Заголовок : Дублированный USSR
Язык : Russian
Default : Да
Forced : Нет
Аудио #2
Идентификатор : 3
Формат : AC-3
Формат/Информация : Audio Coding 3
Расширение режима : CM (complete main)
Параметр Endianness формата : Big
Идентификатор кодека : A_AC3
Продолжительность : 3 ч. 28 м.
Вид битрейта : Постоянный
Битрейт : 192 Кбит/сек
Каналы : 2 канала
Расположение каналов : Front: L R
Частота : 48,0 КГц
Битовая глубина : 16 бит
Метод сжатия : С потерями
Размер потока : 286 Мбайт (1%)
Заголовок : Профессиональный (многоголосый, закадровый)
Язык : Russian
Default : Нет
Forced : Нет
Аудио #3
Идентификатор : 4
Формат : AC-3
Формат/Информация : Audio Coding 3
Расширение режима : CM (complete main)
Параметр Endianness формата : Big
Идентификатор кодека : A_AC3
Продолжительность : 3 ч. 28 м.
Вид битрейта : Постоянный
Битрейт : 224 Кбит/сек
Каналы : 2 канала
Расположение каналов : Front: L R
Частота : 48,0 КГц
Битовая глубина : 16 бит
Метод сжатия : С потерями
Размер потока : 334 Мбайт (2%)
Заголовок : English
Язык : English
Default : Нет
Forced : Нет
Текст #1
Идентификатор : 5
Формат : UTF-8
Идентификатор кодека : S_TEXT/UTF8
Идентификатор кодека/Информация : UTF-8 Plain Text
Заголовок : Russian
Язык : Russian
Default : Нет
Forced : Нет
Текст #2
Идентификатор : 6
Формат : UTF-8
Идентификатор кодека : S_TEXT/UTF8
Идентификатор кодека/Информация : UTF-8 Plain Text
Заголовок : English
Язык : English
Default : Нет
Forced : Нет
Текст #3
Идентификатор : 7
Формат : UTF-8
Идентификатор кодека : S_TEXT/UTF8
Идентификатор кодека/Информация : UTF-8 Plain Text
Заголовок : English SDH
Язык : English
Default : Нет
Forced : Нет
Меню
00:00:00.000 : :Chapter 01
00:08:27.464 : :Chapter 02
00:14:16.230 : :Chapter 03
00:23:51.680 : :Chapter 04
00:31:49.199 : :Chapter 05
00:36:11.669 : :Chapter 06
00:42:07.483 : :Chapter 07
00:49:26.005 : :Chapter 08
00:52:32.440 : :Chapter 09
01:02:46.638 : :Chapter 10
01:09:30.332 : :Chapter 11
01:17:56.714 : :Chapter 12
01:27:26.073 : :Chapter 13
01:36:20.274 : :Chapter 14
01:44:54.747 : :Chapter 15
01:55:17.786 : :Chapter 16
02:04:11.027 : :Chapter 17
02:14:10.042 : :Chapter 18
02:20:25.125 : :Chapter 19
02:31:15.191 : :Chapter 20
02:39:13.960 : :Chapter 21
02:47:33.960 : :Chapter 22
02:55:26.391 : :Chapter 23
03:01:23.998 : :Chapter 24
03:13:06.200 : :Chapter 25
03:17:31.256 : :Chapter 26
03:23:23.983 : :Chapter 27
х264
raw [info]: 1920x1080p 1:1 @ 24000/1001 fps (cfr)
x264 [info]: using SAR=1/1
x264 [info]: using cpu capabilities: MMX2 SSE2Fast SSSE3 SSE4.2 AVX
x264 [info]: profile High, level 4.1
x264 [info]: frame I:1612 Avg QP:16.18 size:190363
x264 [info]: frame P:69254 Avg QP:17.05 size:113680
x264 [info]: frame B:228898 Avg QP:19.45 size: 59748
x264 [info]: consecutive B-frames: 0.7% 0.6% 18.4% 34.1% 11.3% 31.8% 1.6% 1.1% 0.1% 0.1% 0.1% 0.2%
x264 [info]: mb I I16..4: 9.7% 86.2% 4.1%
x264 [info]: mb P I16..4: 4.8% 43.6% 1.5% P16..4: 26.7% 15.6% 6.7% 0.0% 0.0% skip: 1.1%
x264 [info]: mb B I16..4: 2.4% 10.0% 0.3% B16..8: 33.0% 9.2% 2.4% direct:21.1% skip:21.6% L0:38.4% L1:39.1% BI:22.5%
x264 [info]: 8x8 transform intra:83.4% inter:55.8%
x264 [info]: direct mvs spatial:100.0% temporal:0.0%
x264 [info]: coded y,uvDC,uvAC intra: 90.3% 85.5% 52.0% inter: 42.0% 42.8% 1.7%
x264 [info]: i16 v,h,dc,p: 15% 6% 59% 20%
x264 [info]: i8 v,h,dc,ddl,ddr,vr,hd,vl,hu: 17% 10% 29% 6% 6% 8% 6% 8% 9%
x264 [info]: i4 v,h,dc,ddl,ddr,vr,hd,vl,hu: 19% 9% 15% 8% 10% 12% 9% 9% 8%
x264 [info]: i8c dc,h,v,p: 48% 24% 21% 6%
x264 [info]: Weighted P-Frames: Y:8.5% UV:4.0%
x264 [info]: ref P L0: 49.0% 10.7% 26.6% 10.6% 2.9% 0.1%
x264 [info]: ref B L0: 83.0% 13.6% 3.4%
x264 [info]: ref B L1: 91.8% 8.2%
x264 [info]: kb/s:13984.86
x264 [total]: encoded 299764 frames, 5.95 fps, 13984.86 kb/s
Скриншоты