(Country Blues Rock) Doug Sahm - Doug Sahm and Band - 1973 (Edsel Records ED CD 154 UK 1985), FLAC (tracks+.cue), lossless


Жанр: Country Blues Rock
Страна-производитель диска: UK
Год издания диска: 1985
Издатель (лейбл): Edsel Records
Номер по каталогу: ED CD 154
Страна: USA
Аудио кодек: FLAC (*.flac)
Тип рипа: tracks+.cue
Битрейт аудио: lossless
Продолжительность: 00:44:47
Источник (релизер): суслик
Наличие сканов в содержимом раздачи:
Треклист:
01. (Is Anybody Going To) San Antone 03:09
02. It's Gonna Be Easy 03:31
03. Your Friends 05:23
04. Poison Love 04:21
05. Wallflower 02:39
06. Dealer's Blues 02:59
07. Faded Love 03:55
08. Blues Stay Away From Me 04:47
09. Papa Ain't Salty 04:30
10. Me And Paul 03:34
11. Don't Turn Around 03:28
12. I Get Off 02:36
Лог создания рипа
Exact Audio Copy V0.99 prebeta 5 from 4. May 2009
EAC extraction logfile from 20. May 2011, 15:21
Doug Sahm / Doug Sahm and Band
Used drive : Optiarc DVD RW AD-7703S Adapter: 0 ID: 0
Read mode : Secure
Utilize accurate stream : Yes
Defeat audio cache : Yes
Make use of C2 pointers : No
Read offset correction : 48
Overread into Lead-In and Lead-Out : No
Fill up missing offset samples with silence : Yes
Delete leading and trailing silent blocks : No
Null samples used in CRC calculations : Yes
Used interface : Native Win32 interface for Win NT & 2000
Gap handling : Appended to previous track
Used output format : User Defined Encoder
Selected bitrate : 320 kBit/s
Quality : High
Add ID3 tag : No
Command line compressor : C:\Program Files (x86)\Exact Audio Copy\Flac\flac.exe
Additional command line options : -V -8 -T "artist=%a" -T "title=%t" -T "album=%g" -T "date=%y" -T "tracknumber=%n" -T "genre=%m" %s
TOC of the extracted CD
Track | Start | Length | Start sector | End sector
---------------------------------------------------------
1 | 0:00.00 | 3:09.51 | 0 | 14225
2 | 3:09.51 | 3:31.07 | 14226 | 30057
3 | 6:40.58 | 5:23.51 | 30058 | 54333
4 | 12:04.34 | 4:21.26 | 54334 | 73934
5 | 16:25.60 | 2:39.62 | 73935 | 85921
6 | 19:05.47 | 2:59.01 | 85922 | 99347
7 | 22:04.48 | 3:55.74 | 99348 | 117046
8 | 26:00.47 | 4:47.52 | 117047 | 138623
9 | 30:48.24 | 4:30.06 | 138624 | 158879
10 | 35:18.30 | 3:34.17 | 158880 | 174946
11 | 38:52.47 | 3:28.21 | 174947 | 190567
12 | 42:20.68 | 2:36.60 | 190568 | 202327
Track 1
Filename C:\EACrips\Doug Sahm - 1973 - Doug Sahm and Band [FLAC]\ 01 - (Is Anybody Going To) San Antone.wav
Pre-gap length 0:00:02.00
Peak level 89.1 %
Track quality 100.0 %
Test CRC 0092E6C7
Copy CRC 0092E6C7
Accurately ripped (confidence 4) [2EF1B175]
Copy OK
Track 2
Filename C:\EACrips\Doug Sahm - 1973 - Doug Sahm and Band [FLAC]\ 02 - It's Gonna Be Easy.wav
Pre-gap length 0:00:01.41
Peak level 89.1 %
Track quality 100.0 %
Test CRC 795DC787
Copy CRC 795DC787
Accurately ripped (confidence 4) [8C2594B9]
Copy OK
Track 3
Filename C:\EACrips\Doug Sahm - 1973 - Doug Sahm and Band [FLAC]\ 03 - Your Friends.wav
Peak level 85.4 %
Track quality 100.0 %
Test CRC 6E1A22F7
Copy CRC 6E1A22F7
Accurately ripped (confidence 4) [3F2D46AF]
Copy OK
Track 4
Filename C:\EACrips\Doug Sahm - 1973 - Doug Sahm and Band [FLAC]\ 04 - Poison Love.wav
Pre-gap length 0:00:02.10
Peak level 89.1 %
Track quality 99.9 %
Test CRC 95AE5382
Copy CRC 95AE5382
Accurately ripped (confidence 4) [14E22E3C]
Copy OK
Track 5
Filename C:\EACrips\Doug Sahm - 1973 - Doug Sahm and Band [FLAC]\ 05 - Wallflower.wav
Pre-gap length 0:00:01.08
Peak level 82.0 %
Track quality 100.0 %
Test CRC 893749DA
Copy CRC 893749DA
Accurately ripped (confidence 4) [204582B9]
Copy OK
Track 6
Filename C:\EACrips\Doug Sahm - 1973 - Doug Sahm and Band [FLAC]\ 06 - Dealer's Blues.wav
Peak level 89.1 %
Track quality 100.0 %
Test CRC 12AAF065
Copy CRC 12AAF065
Accurately ripped (confidence 4) [58320FF7]
Copy OK
Track 7
Filename C:\EACrips\Doug Sahm - 1973 - Doug Sahm and Band [FLAC]\ 07 - Faded Love.wav
Pre-gap length 0:00:02.16
Peak level 89.1 %
Track quality 100.0 %
Test CRC 556D08E9
Copy CRC 556D08E9
Accurately ripped (confidence 4) [8D64DFB7]
Copy OK
Track 8
Filename C:\EACrips\Doug Sahm - 1973 - Doug Sahm and Band [FLAC]\ 08 - Blues Stay Away From Me.wav
Peak level 89.1 %
Track quality 100.0 %
Test CRC FD1ADA75
Copy CRC FD1ADA75
Accurately ripped (confidence 4) [A1145A15]
Copy OK
Track 9
Filename C:\EACrips\Doug Sahm - 1973 - Doug Sahm and Band [FLAC]\ 09 - Papa Ain't Salty.wav
Pre-gap length 0:00:01.01
Peak level 89.1 %
Track quality 100.0 %
Test CRC B3A47F01
Copy CRC B3A47F01
Accurately ripped (confidence 4) [25E7D569]
Copy OK
Track 10
Filename C:\EACrips\Doug Sahm - 1973 - Doug Sahm and Band [FLAC]\ 10 - Me And Paul.wav
Peak level 84.1 %
Track quality 100.0 %
Test CRC B9EB15F8
Copy CRC B9EB15F8
Accurately ripped (confidence 4) [C31C1B53]
Copy OK
Track 11
Filename C:\EACrips\Doug Sahm - 1973 - Doug Sahm and Band [FLAC]\ 11 - Don't Turn Around.wav
Pre-gap length 0:00:01.42
Peak level 89.1 %
Track quality 100.0 %
Test CRC 79067ACB
Copy CRC 79067ACB
Accurately ripped (confidence 4) [27F1BA3D]
Copy OK
Track 12
Filename C:\EACrips\Doug Sahm - 1973 - Doug Sahm and Band [FLAC]\ 12 - I Get Off.wav
Pre-gap length 0:00:01.45
Peak level 89.1 %
Track quality 100.0 %
Test CRC 51A30A99
Copy CRC 51A30A99
Accurately ripped (confidence 4) [ABB9DA80]
Copy OK
All tracks accurately ripped
No errors occurred
End of status report
Содержание индексной карты (.CUE)
REM GENRE Rock
REM DATE 1973
REM DISCID 8D0A890C
REM COMMENT "ExactAudioCopy v0.99pb5"
TITLE "Doug Sahm And Band"
PERFORMER "Doug Sahm"
REM DATE 1973
REM GENRE "Rock"
FILE "01 - (Is Anybody Going To) San Antone.wav" WAVE
TRACK 01 AUDIO
PERFORMER "Doug Sahm"
TITLE "(Is Anybody Going To) San Antone"
INDEX 01 00:00:00
TRACK 02 AUDIO
PERFORMER "Doug Sahm"
TITLE "It's Gonna Be Easy"
INDEX 00 03:06:58
FILE "02 - It's Gonna Be Easy.wav" WAVE
INDEX 01 00:00:00
FILE "03 - Your Friends.wav" WAVE
TRACK 03 AUDIO
PERFORMER "Doug Sahm"
TITLE "Your Friends"
INDEX 01 00:00:00
TRACK 04 AUDIO
PERFORMER "Doug Sahm"
TITLE "Poison Love"
INDEX 00 05:19:27
FILE "04 - Poison Love.wav" WAVE
INDEX 01 00:00:00
TRACK 05 AUDIO
PERFORMER "Doug Sahm"
TITLE "Wallflower"
INDEX 00 04:19:06
FILE "05.Doug Sahm - Wallflower.wav" WAVE
INDEX 01 00:00:00
FILE "06 - Dealer's Blues.wav" WAVE
TRACK 06 AUDIO
PERFORMER "Doug Sahm"
TITLE "Dealer's Blues"
INDEX 01 00:00:00
TRACK 07 AUDIO
PERFORMER "Doug Sahm"
TITLE "Faded Love"
INDEX 00 02:54:45
FILE "07.Doug Sahm - Faded Love.wav" WAVE
INDEX 01 00:00:00
FILE "08 - Blues Stay Away From Me.wav" WAVE
TRACK 08 AUDIO
PERFORMER "Doug Sahm"
TITLE "Blues Stay Away From Me"
INDEX 01 00:00:00
TRACK 09 AUDIO
PERFORMER "Doug Sahm"
TITLE "Papa Ain't Salty"
INDEX 00 04:45:47
FILE "09 - Papa Ain't Salty.wav" WAVE
INDEX 01 00:00:00
FILE "10.Doug Sahm - Me And Paul.wav" WAVE
TRACK 10 AUDIO
PERFORMER "Doug Sahm"
TITLE "Me And Paul"
INDEX 01 00:00:00
TRACK 11 AUDIO
PERFORMER "Doug Sahm"
TITLE "Don't Turn Around"
INDEX 00 03:31:14
FILE "11 - Don't Turn Around.wav" WAVE
INDEX 01 00:00:00
TRACK 12 AUDIO
PERFORMER "Doug Sahm"
TITLE "I Get Off"
INDEX 00 03:25:23
FILE "12 - I Get Off.wav" WAVE
INDEX 01 00:00:00
Лог проверки качества
-----------------------
DON'T MODIFY THIS FILE
-----------------------
PERFORMER: auCDtect Task Manager, ver. 1.5.1RC4 build 1.5.1.5
Copyright (c) 2008-2010 y-soft. All rights reserved

ANALYZER: auCDtect: CD records authenticity detector, version 0.8.2
Copyright (c) 2004 Oleg Berngardt. All rights reserved.
Copyright (c) 2004 Alexander Djourik. All rights reserved.
FILE: 12 - I Get Off.flac
Size: 16487662 Hash: 8FCBA7CDCB357133E03A746664B355FC Accuracy: -m0
Conclusion: CDDA 100%
Signature: A0C3D9F12F7EBCD81EB90AAE2D5E6FC25A44BC5B
FILE: 11 - Don't Turn Around.flac
Size: 21540567 Hash: BE85DC13274D69353E83545DDE57E1CB Accuracy: -m0
Conclusion: CDDA 99%
Signature: C475A8E9F3469196B55F900AA3A438AFE9776020
FILE: 10 - Me And Paul.flac
Size: 22275374 Hash: 1C468934C85654D2DB563EC63D95E908 Accuracy: -m0
Conclusion: CDDA 100%
Signature: F4BC196FCA9CD2FB19050CE7DD77BCA9A8D7CC97
FILE: 09 - Papa Ain't Salty.flac
Size: 29044122 Hash: B131685B462CA2D6DA58A0F3E1351D0E Accuracy: -m0
Conclusion: CDDA 100%
Signature: FC1044839F8506D2FEDD4FB4FF2754B1BA24DD63
FILE: 08 - Blues Stay Away From Me.flac
Size: 29609952 Hash: A3551D1C0D6289B80D1D4B3958629AFC Accuracy: -m0
Conclusion: CDDA 100%
Signature: F1058065783D4B09513B9E08E33BC47EB0D7AE08
FILE: 07 - Faded Love.flac
Size: 25500880 Hash: B57E350E77903D9C5CFB2C7C37FBB91B Accuracy: -m0
Conclusion: CDDA 100%
Signature: 8977C59B03474683355C789489FA1DAC128E05E0
FILE: 06 - Dealer's Blues.flac
Size: 19780486 Hash: 142C6505529038BB42514272AB15D7DC Accuracy: -m0
Conclusion: CDDA 100%
Signature: A52E3C615F9CD1EB528FD85449028C6ACB004100
FILE: 05 - Wallflower.flac
Size: 15766140 Hash: D012FD6A67669C6F3259D4AD8156E2E9 Accuracy: -m0
Conclusion: CDDA 100%
Signature: E583BE38E4510806490A858A3D10FEC4ED1D5A33
FILE: 04 - Poison Love.flac
Size: 29132007 Hash: FE286893A73A0583A935E135DD1F7773 Accuracy: -m0
Conclusion: CDDA 100%
Signature: A36BB5B8A306D109768F02932FDBAB6F60DA1BA5
FILE: 03 - Your Friends.flac
Size: 32240271 Hash: 099276F20020632EBD1ADCF542F1B81B Accuracy: -m0
Conclusion: CDDA 100%
Signature: 7B4D68E1D4C02440312A918D86A1D135797550E8
FILE: 02 - It's Gonna Be Easy.flac
Size: 22887946 Hash: 97FFC6819BBF3EF091AC71A50EB852C5 Accuracy: -m0
Conclusion: CDDA 100%
Signature: B4A649E6FE9FC5875578DEE261B7A1333F3E5FD2
FILE: 01 - (Is Anybody Going To) San Antone.flac
Size: 19674086 Hash: B4708D8BB9AC605C17C1E6DD7A9BB251 Accuracy: -m0
Conclusion: CDDA 100%
Signature: 8E278A98F66A996A249D9BEEE2940914197E1C0F
CUETools log
[CUETools log; Date: 15.10.2013 14:02:20; Version: 2.1.4]
CDDBId mismatch: 8D0A890C vs 800A7E0C
Padded some input files to a frame boundary.
[CTDB TOCID: m1ZYnJEavkzvGxzLPvT4KCyJG1Y-] disk not present in database.
[AccurateRip ID: 00145bf2-00be5f2f-800a7e0c] disk not present in database.
Track Peak [ CRC32 ] [W/O NULL] [ LOG ]
-- 89,1 [F352AD1E] [E07D1501]
01 89,1 [3C7E8AA0] [D0183D30] [0092E6C7]
02 89,1 [92205146] [E8C37E55] [795DC787]
03 85,4 [86813E5B] [181928E3] [6E1A22F7]
04 89,1 [983BBA2B] [2816AD92] [95AE5382]
05 82,0 [B255BAB3] [CCF17249] [893749DA]
06 89,1 [7027F370] [6A3D35CD] [12AAF065]
07 89,1 [FE8F66AD] [B7222D6A] [556D08E9]
08 89,1 [705E66A0] [E94E498C] [FD1ADA75]
09 89,1 [505764B9] [C7BB21EB] [B3A47F01]
10 84,1 [2534D718] [22777DD8] [B9EB15F8]
11 89,1 [9AAF729A] [CC1D1B7F] [79067ACB]
12 89,1 [FC10A3D0] [4371F39D] [51A30A99]
Доп. информация
Состав
Doug Sahm - Vocals, Guitar, Harp, Fiddle, Bass, Organ, Piano
Bob Dylan - Vocals, Guitar, Harp
Dr. John - Organ
Ken Kosek - Fiddle
Charlie Owens - Steel Guitar
Willie Bridges - Baritone Saxophone
Arif Mardin - Electric Piano
David "Fathead" Newman - Tenor Saxophone
Wayne Jackson - Trumpet
Flaco Jimenez Harmony - Accordion
Atwood - Vocals
Andy Statman - Mandolin
Augie Meyer - Piano
David Bromberg - Dobro Guitar
Jack Walrath, Martin Fierro, Mel Martin - Horns
George Rains - Drums
Об исполнителе
Doug Sahm (6 ноября 1941 - 18 ноября 1999), был американским музыкантом из Техаса. Родился в Сан-Антонио, он был вундеркиндом в музыке кантри, но стал значимой фигурой в блюз-роке и других жанрах. Он был основателем и руководителем рок-н-ролл группы Sir Douglas Quintet. Позднее он стал создателем Texas Tornados совместно с Augie Meyers, Freddy Fender, и Flaco Jimenez, а также Los Super Seven. Sahm хорошо играл на десятках музыкальных инструментов. Сольную карьеру начал в 1972 году.
Back, Disc, Spectrogram