Третий человек / The Third Man (Кэрол Рид / Carol Reed) [1949, Великобритания, фильм-нуар, триллер, детектив, BDRip, HD (720p)] MVO, Original + sub (rus, eng)

«HUNTED...By a thousand men! Haunted...By a lovely girl!» | |
Год выпуска: 1949
Страна: Великобритания
Студия: London Film Productions
Жанр: фильм-нуар, триллер, детектив
Продолжительность: 01:44
Перевод: Профессиональный многоголосый закадровый
Субтитры: русские, английские
Навигация: по главам (с изображениями)
Режиссёр: Кэрол Рид
Сценарий: Грэм Грин, Кэрол Рид, Орсон Уэллс
Продюсер: Кэрол Рид, Александр Корда, Дэвид О. Селзник
В ролях: Джозеф Коттен, Орсон Уэллс, Алида Валли, Тревор Ховард, Бернард Ли, Пауль Хёрбигер, Эрнст Дойч, Зигфрид Бройер, Эрих Понто, Уилфрид Хайд-Уайт
Описание: Холли Мартинс, автор бульварных романов, в надежде получить работу приезжает в послевоенную Вену по приглашению старинного приятеля Гарри Лайма. Увы, буквально накануне тот погиб в результате несчастного случая.
По мнению полицейского Кэллоуэя, Лайм был темной личностью, рэкетиром и спекулянтом. Мартинс решает провести собственное расследование, чтобы снять с друга обвинения в преступлениях, которые, как он уверен, тот не совершал.
Большой приз Каннского кинофестиваля 1949 г.
Исходник: BD Remux (HDClub)
Контейнер: M4V
Видео HD: 960x720 at 23.976 fps, MPEG-4 AVC, ~7000 kbps avg
Аудио №1: Stereo RUS (160 kbps) / Многоголосый закадровый, Film Prestige, версия #1
Аудио №2: Mono RUS (160 kbps) / Многоголосый закадровый, Film Prestige, версия #2
Аудио №5: Stereo ENG (160 kbps) / Оригинал, Studio Canal Collection
Аудио №5: Mono ENG (160 kbps) / Оригинал, Criterion Collection
Субтитры №1:Russian Full
Субтитры №2:English Full
iTunes Meta Tags
Sort Name: Third Man
XID: Apple:vendor_id:1949-359
contentID: 344299940
Copyright: © 1949 CANAL+ Image UK Ltd. All Rights Reserved.
Screenwriters: Грэм Грин, Кэрол Рид, Орсон Уэллс
Producers: Кэрол Рид, Александр Корда, Дэвид О. Селзник
Director: Кэрол Рид
Cast: Джозеф Коттен, Орсон Уэллс, Алида Валли, Тревор Ховард, Бернард Ли, Пауль Хёрбигер, Эрнст Дойч, Зигфрид Бройер, Эрих Понто, Уилфрид Хайд-Уайт
Studio: London Film Productions
Rating: 1
Long Description: Холли Мартинс, автор бульварных романов, в надежде получить работу приезжает в послевоенную Вену по приглашению старинного приятеля Гарри Лайма. Увы, буквально накануне тот погиб в результате несчастного случая.
По мнению полицейского Кэллоуэя, Лайм был темной личностью, рэкетиром и спекулянтом. Мартинс решает провести собственное расследование, чтобы снять с друга обвинения в преступлениях, которые, как он уверен, тот не совершал.
Description: Холли Мартинс, автор бульварных романов, в надежде получить работу приезжает в послевоенную Вену по приглашению старинного приятеля Гарри Лайма. Увы, буквально накануне тот погиб в результате несчастного случая.
Release Date: 1949-08-31T08:00:00Z
Genre: Drama
Artist: Carol Reed
Name: The Third Man
MediaInfo HD
Формат : MPEG-4
Идентификатор кодека : M4V
Размер файла : 5,64 Гбайт
Продолжительность : 1 ч. 45 м.
Режим общего битрейта : Переменный
Общий поток : 7668 Кбит/сек
Название фильма : The Third Man
Исполнитель : Carol Reed
Жанр : Drama
Дата записи : UTC 1949-08-31 08:00:00
Дата кодирования : UTC 2013-08-24 07:48:22
Дата пометки : UTC 2013-08-24 08:56:52
Правообладатель : © 1949 CANAL+ Image UK Ltd. All Rights Reserved.
Обложка : Yes
sonm : Third Man
desc : Холли Мартинс, автор бульварных романов, в надежде получить работу приезжает в послевоенную Вену по приглашению старинного приятеля Гарри Лайма. Увы, буквально накануне тот погиб в результате несчастного случая.
ldes : Холли Мартинс, автор бульварных романов, в надежде получить работу приезжает в послевоенную Вену по приглашению старинного приятеля Гарри Лайма. Увы, буквально накануне тот погиб в результате несчастного случая. / По мнению полицейского Кэллоуэя, Лайм был темной личностью, рэкетиром и спекулянтом. Мартинс решает провести собственное расследование, чтобы снять с друга обвинения в преступлениях, которые, как он уверен, тот не совершал.
hdvd : 1
stik : 9
rtng : 0
cnID : 344299940
xid : Apple:vendor_id:1949-359
iTunEXTC : mpaa|NR|000|
iTunMOVI : <?xml version="1.0" encoding="UTF-8"?> / <!DOCTYPE plist PUBLIC "-//Apple//DTD PLIST 1.0//EN" "http://www.apple.com/DTDs/PropertyList-1.0.dtd"> / <plist version="1.0"> / <dict> / <key>cast</key> / <array> / <dict> / <key>name</key> / <string>Джозеф Коттен</string> / </dict> / <dict> / <key>name</key> / <string>Орсон Уэллс</string> / </dict> / <dict> / <key>name</key> / <string>Алида Валли</string> / </dict> / <dict> / <key>name</key> / <string>Тревор Ховард</string> / </dict> / <dict> / <key>name</key> / <string>Бернард Ли</string> / </dict> / <dict> / <key>name</key> / <string>Пауль Хёрбигер</string> / </dict> / <dict> / <key>name</key> / <string>Эрнст Дойч</string> / </dict> / <dict> / <key>name</key> / <string>Зигфрид Бройер</string> / </dict> / <dict> / <key>name</key> / <string>Эрих Понто</string> / </dict> / <dict> / <key>name</key> / <string>Уилфрид Хайд-Уайт</string> / </dict> / </array> / <key>directors</key> / <array> / <dict> / <key>name</key> / <string>Кэрол Рид</string> / </dict> / </array> / <key>producers</key> / <array> / <dict> / <key>name</key> / <string>Кэрол Рид</string> / </dict> / <dict> / <key>name</key> / <string>Александр Корда</string> / </dict> / <dict> / <key>name</key> / <string>Дэвид О. Селзник</string> / </dict> / </array> / <key>screenwriters</key> / <array> / <dict> / <key>name</key> / <string>Грэм Грин</string> / </dict> / <dict> / <key>name</key> / <string>Кэрол Рид</string> / </dict> / <dict> / <key>name</key> / <string>Орсон Уэллс</string> / </dict> / </array> / <key>studio</key> / <string>London Film Productions</string> / </dict> / </plist>
Видео #1
Идентификатор : 1
Формат : AVC
Формат/Информация : Advanced Video Codec
Профиль формата : High@L3.1
Параметр CABAC формата : Нет
Параметр ReFrames формата : 3 кадра
Идентификатор кодека : avc1
Идентификатор кодека/Информация : Advanced Video Coding
Продолжительность : 1 ч. 45 м.
Вид битрейта : Переменный
Битрейт : 7000 Кбит/сек
Ширина : 960 пикселей
Высота : 720 пикселей
Соотношение сторон : 4:3
Режим частоты кадров : Переменный
Частота кадров : 23,976 кадра/сек
Минимальная частота кадров : 23,810 кадра/сек
Максимальная частота кадров : 24,390 кадра/сек
Цветовое пространство : YUV
Субдискретизация насыщенности : 4:2:0
Битовая глубина : 8 бит
Тип развёртки : Прогрессивная
Бит/(Пиксели*Кадры) : 0.422
Размер потока : 5,14 Гбайт (91%)
Библиотека кодирования : x264 core 130 r2273 b3065e6
Настройки программы : cabac=0 / ref=3 / deblock=1:1:-1 / analyse=0x3:0x113 / me=umh / subme=9 / psy=1 / psy_rd=0.70:0.00 / mixed_ref=1 / me_range=32 / chroma_me=1 / trellis=0 / 8x8dct=1 / cqm=0 / deadzone=21,11 / fast_pskip=1 / chroma_qp_offset=-2 / threads=3 / lookahead_threads=1 / sliced_threads=0 / nr=0 / decimate=1 / interlaced=0 / bluray_compat=0 / constrained_intra=0 / bframes=3 / b_pyramid=0 / b_adapt=2 / b_bias=0 / direct=1 / weightb=0 / open_gop=0 / weightp=0 / keyint=240 / keyint_min=24 / scenecut=40 / intra_refresh=0 / rc_lookahead=40 / rc=2pass / mbtree=1 / bitrate=7000 / ratetol=1.0 / qcomp=0.60 / qpmin=0 / qpmax=69 / qpstep=4 / cplxblur=20.0 / qblur=0.5 / vbv_maxrate=9500 / vbv_bufsize=9500 / nal_hrd=none / ip_ratio=1.40 / aq=1:1.00
Язык : English
Дата кодирования : UTC 2013-08-24 07:48:22
Дата пометки : UTC 2013-08-24 08:14:00
Основные цвета : BT.709
Характеристики трансфера : BT.709
Коэффициенты матрицы : BT.709
Видео #2
Идентификатор : 9
Формат : JPEG
Идентификатор кодека : jpeg
Продолжительность : 1 ч. 45 м.
Вид битрейта : Переменный
Битрейт : 2616 бит/сек
Ширина : 640 пикселей
Высота : 480 пикселей
Соотношение сторон : 4:3
Режим частоты кадров : Переменный
Частота кадров : 0,004 кадр/сек
Минимальная частота кадров : 0,002 кадр/сек
Максимальная частота кадров : 0,007 кадр/сек
Цветовое пространство : YUV
Субдискретизация насыщенности : 4:2:0
Битовая глубина : 8 бит
Метод сжатия : С потерями
Бит/(Пиксели*Кадры) : 2.129
Размер потока : 1,79 Мбайт (0%)
Язык : English
Дата кодирования : UTC 2013-08-24 08:33:57
Дата пометки : UTC 2013-08-24 08:33:58
Аудио #1
Идентификатор : 2
Формат : AAC
Формат/Информация : Advanced Audio Codec
Профиль формата : LC
Идентификатор кодека : 40
Продолжительность : 1 ч. 45 м.
Вид битрейта : Переменный
Битрейт : 164 Кбит/сек
Максимальный битрейт : 252 Кбит/сек
Каналы : 2 канала
Расположение каналов : Front: L R
Частота : 48,0 КГц
Метод сжатия : С потерями
Задержка видео : 42 мс.
Размер потока : 123 Мбайт (2%)
Язык : Russian
Дата кодирования : UTC 2013-08-24 07:48:22
Дата пометки : UTC 2013-08-24 07:49:12
Аудио #2
Идентификатор : 3
Формат : AAC
Формат/Информация : Advanced Audio Codec
Профиль формата : LC
Идентификатор кодека : 40
Продолжительность : 1 ч. 45 м.
Вид битрейта : Переменный
Битрейт : 164 Кбит/сек
Максимальный битрейт : 248 Кбит/сек
Каналы : 1 канал
Расположение каналов : Front: C
Частота : 48,0 КГц
Метод сжатия : С потерями
Задержка видео : 42 мс.
Размер потока : 124 Мбайт (2%)
Язык : Russian
Дата кодирования : UTC 2013-08-24 07:48:22
Дата пометки : UTC 2013-08-24 08:14:42
Аудио #3
Идентификатор : 4
Формат : AAC
Формат/Информация : Advanced Audio Codec
Профиль формата : LC
Идентификатор кодека : 40
Продолжительность : 1 ч. 45 м.
Вид битрейта : Переменный
Битрейт : 164 Кбит/сек
Максимальный битрейт : 252 Кбит/сек
Каналы : 2 канала
Расположение каналов : Front: L R
Частота : 48,0 КГц
Метод сжатия : С потерями
Задержка видео : 42 мс.
Размер потока : 123 Мбайт (2%)
Язык : English
Дата кодирования : UTC 2013-08-24 07:48:22
Дата пометки : UTC 2013-08-24 08:15:23
Аудио #4
Идентификатор : 5
Формат : AAC
Формат/Информация : Advanced Audio Codec
Профиль формата : LC
Идентификатор кодека : 40
Продолжительность : 1 ч. 45 м.
Вид битрейта : Переменный
Битрейт : 164 Кбит/сек
Максимальный битрейт : 244 Кбит/сек
Каналы : 1 канал
Расположение каналов : Front: C
Частота : 48,0 КГц
Метод сжатия : С потерями
Задержка видео : 42 мс.
Размер потока : 124 Мбайт (2%)
Язык : English
Дата кодирования : UTC 2013-08-24 07:48:22
Дата пометки : UTC 2013-08-24 08:16:10
Текст #1
Идентификатор : 6
Формат : Timed Text
Режим смешивания : sbtl
Идентификатор кодека : tx3g
Продолжительность : 1 ч. 43 м.
Вид битрейта : Переменный
Битрейт : 108 бит/сек
Задержка видео : 42 мс.
Размер потока : 81,5 Кбайт (0%)
Язык : Russian
Дата кодирования : UTC 2013-08-24 07:48:22
Дата пометки : UTC 2013-08-24 08:32:59
Текст #2
Идентификатор : 7
Формат : Timed Text
Режим смешивания : sbtl
Идентификатор кодека : tx3g
Продолжительность : 1 ч. 43 м.
Вид битрейта : Переменный
Битрейт : 77 бит/сек
Задержка видео : 42 мс.
Размер потока : 58,0 Кбайт (0%)
Язык : English
Дата кодирования : UTC 2013-08-24 07:48:23
Дата пометки : UTC 2013-08-24 08:32:37
Меню #1
00:00:00.000 : Vienna Greets Holly Martins
00:05:35.877 : "A Fellow Called Lime"
00:08:08.988 : "My Name's Calloway"
00:10:42.600 : Mr. Crabbin and Mr. Kurtz
00:14:54.435 : Scene of the Crime
00:18:22.018 : Backstage at the Josefstadt
00:22:45.447 : "There Was a Third Man"
00:27:44.079 : "Leave Death to the Proessionals"
00:32:45.922 : "Vinkel!"
00:37:23.408 : Popescu at the Casanova Club
00:43:31.776 : "One of Those Bad Days"
00:46:52.184 : A Date With the Porters
00:51:07.523 : A Literary Celebrity
00:55:47.177 : The Harry Lime File
00:59:37.282 : The Author As Romantic
01:05:19.791 : The Cat in the Doorway
01:07:42.225 : Men Underground
01:10:29.642 : An International Police Action
01:15:00.079 : The Prater Wheel
01:23:18.368 : The Prince of Penicillin
01:30:04.107 : "Ballon, Mein Herr?"
01:34:05.014 : The Ghost in the Sewers
01:42:10.374 : Last Respects
x264 лог HD
x264 [info]: frame I:1345  Avg QP:19.22  size:103760  PSNR Mean Y:43.70 U:99.94 V:99.94 Avg:45.45 Global:45.03
x264 [info]: frame P:43218 Avg QP:22.35 size: 54848 PSNR Mean Y:40.27 U:99.82 V:99.82 Avg:42.03 Global:41.53
x264 [info]: frame B:106806 Avg QP:24.78 size: 28203 PSNR Mean Y:38.24 U:99.87 V:99.87 Avg:39.99 Global:39.45
x264 [info]: consecutive B-frames: 1.4% 3.5% 29.9% 65.2%
x264 [info]: mb I I16..4: 2.8% 68.5% 28.8%
x264 [info]: mb P I16..4: 0.8% 23.2% 4.3% P16..4: 33.9% 25.0% 8.9% 0.0% 0.0% skip: 3.9%
x264 [info]: mb B I16..4: 0.2% 9.4% 1.0% B16..8: 42.4% 14.1% 3.0% direct:11.0% skip:19.0% L0:40.8% L1:41.0% BI:18.1%
x264 [info]: 8x8 transform intra:84.4% inter:50.7%
x264 [info]: coded y,uvDC,uvAC intra: 98.4% 0.1% 0.1% inter: 44.5% 0.0% 0.0%
x264 [info]: i16 v,h,dc,p: 31% 19% 16% 34%
x264 [info]: i8 v,h,dc,ddl,ddr,vr,hd,vl,hu: 10% 7% 7% 12% 16% 15% 13% 12% 9%
x264 [info]: i4 v,h,dc,ddl,ddr,vr,hd,vl,hu: 10% 6% 4% 12% 18% 17% 12% 12% 8%
x264 [info]: i8c dc,h,v,p: 100% 0% 0% 0%
x264 [info]: ref P L0: 60.8% 24.3% 14.9%
x264 [info]: ref B L0: 74.4% 25.6%
x264 [info]: SSIM Mean Y:0.9425339 (12.406db)
x264 [info]: PSNR Mean Y:38.866 U:99.858 V:99.858 Avg:40.620 Global:39.982 kb/s:6997.61
Скриншоты HD
, ,


Релиз подготовлен для просмотра на , , , .
Для просмотра данного релиза на компьютере с ОС Windows рекомендуется использовать