(Pop, Soul, R&B) Stevie Wonder - The Definitive Collection - 2004, FLAC (tracks), lossless


Страна: USA
Жанр: Pop, Soul, R&B
Год выпуска: 2004
Формат: FLAC (tracks)
Битрейт аудио: lossless
Трэклист:
CD 1:
01. Superstition
02. Sir Duke
03. I Wish
04. Master Blaster (Jammin')
05. Isn't She Lovely
06. I Just Called To Say I Love You
07. As
08. Never Had A Dream Come True
09. I Was Made To Love Her
10. Heaven Help Us All
11. Overjoyed
12. Lately
13. For Your Love
14. If You Really Love Me
15. Higher Ground
16. Do I Do
17. Living For The City
18. Part-Time Lover
CD 2:
01. For Once In My Life
02. Uptight (Everything's Alright)
03. We Can Work It Out
04. Signed, Sealed, Delivered (I'm Yours)
05. Yester-Me, Yester-You, Yesterday
06. I'm Wondering
07. My Cherie Amour
08. You Are The Sunshine Of My Life
09. I Don't Know Why
10. A Place In The Sun
11. Blowin' In The Wind
12. Send One Your Love
13. Pastime Paradise
14. I Ain't Gonna Stand For It
15. Fingertips Pts. 1 & 2
16. Boogie On Reggae Woman
17. You Haven't Done Nothin'
18. He's Misstra Know-It-All
19. Happy Birthday
Доп. информация: Рип не мой, в комплекте cue, log, m3u.
Лог 1-го CD
EAC extraction logfile from 28. July 2007, 18:46 for CD
Stevie Wonder / The Definitive Collection (Disc 1)
Used drive : TSSTcorpCD/DVDW SH-S182M Adapter: 1 ID: 1
Read mode : Secure with NO C2, accurate stream, disable cache
Read offset correction : 6
Overread into Lead-In and Lead-Out : No
Used output format : C:\Program Files\Exact Audio Copy\flac.exe (User Defined Encoder)
192 kBit/s
Additional command line options : -8 -A tukey(0.25) -A gauss(0.1875) -b 4096 -V -T "artist=%a" -T "title=%t" -T "album=%g" -T "date=%y" -T "tracknumber=%n" -T "genre=%m" %s --sector-align
Other options :
Fill up missing offset samples with silence : Yes
Delete leading and trailing silent blocks : No
Installed external ASPI interface
Track 1
Filename C:\My Music\Stevie Wonder - The Definitive Collection\Disc 1\01 - Superstition - Stevie Wonder.wav
Pre-gap length 0:00:02.00
Peak level 88.4 %
Track quality 100.0 %
Test CRC 063EF193
Copy CRC 063EF193
Copy OK
Track 2
Filename C:\My Music\Stevie Wonder - The Definitive Collection\Disc 1\02 - Sir Duke - Stevie Wonder.wav
Pre-gap length 0:00:01.77
Peak level 97.4 %
Track quality 100.0 %
Test CRC 142588BA
Copy CRC 142588BA
Copy OK
Track 3
Filename C:\My Music\Stevie Wonder - The Definitive Collection\Disc 1\03 - I Wish - Stevie Wonder.wav
Pre-gap length 0:00:01.77
Peak level 89.6 %
Track quality 99.9 %
Test CRC 4918FE66
Copy CRC 4918FE66
Copy OK
Track 4
Filename C:\My Music\Stevie Wonder - The Definitive Collection\Disc 1\04 - Masterblaster (Jammin') - Stevie Wonder.wav
Pre-gap length 0:00:01.77
Peak level 93.6 %
Track quality 100.0 %
Test CRC 242087A2
Copy CRC 242087A2
Copy OK
Track 5
Filename C:\My Music\Stevie Wonder - The Definitive Collection\Disc 1\05 - Isn't She Lovely - Stevie Wonder.wav
Pre-gap length 0:00:01.76
Peak level 86.5 %
Track quality 100.0 %
Test CRC F292108D
Copy CRC F292108D
Copy OK
Track 6
Filename C:\My Music\Stevie Wonder - The Definitive Collection\Disc 1\06 - I Just Called To Say I Love You - Stevie Wonder.wav
Pre-gap length 0:00:01.77
Peak level 89.1 %
Track quality 100.0 %
Test CRC F36FA69E
Copy CRC F36FA69E
Copy OK
Track 7
Filename C:\My Music\Stevie Wonder - The Definitive Collection\Disc 1\07 - Ebony & Ivory - Stevie Wonder.wav
Pre-gap length 0:00:01.77
Peak level 89.6 %
Track quality 99.9 %
Test CRC 4D981F96
Copy CRC 4D981F96
Copy OK
Track 8
Filename C:\My Music\Stevie Wonder - The Definitive Collection\Disc 1\08 - As - Stevie Wonder.wav
Pre-gap length 0:00:01.77
Peak level 96.6 %
Track quality 100.0 %
Test CRC B3EBCFC9
Copy CRC B3EBCFC9
Copy OK
Track 9
Filename C:\My Music\Stevie Wonder - The Definitive Collection\Disc 1\09 - Never Had A Dream Come True - Stevie Wonder.wav
Pre-gap length 0:00:01.77
Peak level 65.6 %
Track quality 100.0 %
Test CRC 2DAD64EE
Copy CRC 2DAD64EE
Copy OK
Track 10
Filename C:\My Music\Stevie Wonder - The Definitive Collection\Disc 1\10 - I Was Made To Love Her - Stevie Wonder.wav
Pre-gap length 0:00:01.77
Peak level 65.2 %
Track quality 100.0 %
Test CRC 6BF0DFCD
Copy CRC 6BF0DFCD
Copy OK
Track 11
Filename C:\My Music\Stevie Wonder - The Definitive Collection\Disc 1\11 - Heaven Help Us All - Stevie Wonder.wav
Pre-gap length 0:00:01.77
Peak level 66.1 %
Track quality 100.0 %
Test CRC 56964625
Copy CRC 56964625
Copy OK
Track 12
Filename C:\My Music\Stevie Wonder - The Definitive Collection\Disc 1\12 - Overjoyed - Stevie Wonder.wav
Pre-gap length 0:00:01.77
Peak level 82.8 %
Track quality 100.0 %
Test CRC B8305610
Copy CRC B8305610
Copy OK
Track 13
Filename C:\My Music\Stevie Wonder - The Definitive Collection\Disc 1\13 - Lately - Stevie Wonder.wav
Pre-gap length 0:00:01.77
Peak level 86.3 %
Track quality 100.0 %
Test CRC E99DDD27
Copy CRC E99DDD27
Copy OK
Track 14
Filename C:\My Music\Stevie Wonder - The Definitive Collection\Disc 1\14 - For Your Love - Stevie Wonder.wav
Pre-gap length 0:00:01.77
Peak level 85.7 %
Track quality 99.9 %
Test CRC 2CC6586D
Copy CRC 2CC6586D
Copy OK
Track 15
Filename C:\My Music\Stevie Wonder - The Definitive Collection\Disc 1\15 - If You Really Love Me - Stevie Wonder.wav
Pre-gap length 0:00:01.78
Peak level 75.6 %
Track quality 100.0 %
Test CRC 656FA96A
Copy CRC 656FA96A
Copy OK
Track 16
Filename C:\My Music\Stevie Wonder - The Definitive Collection\Disc 1\16 - Higher Ground - Stevie Wonder.wav
Pre-gap length 0:00:01.77
Peak level 91.5 %
Track quality 99.9 %
Test CRC A8DA817A
Copy CRC A8DA817A
Copy OK
Track 17
Filename C:\My Music\Stevie Wonder - The Definitive Collection\Disc 1\17 - Do I Do - Stevie Wonder.wav
Pre-gap length 0:00:01.77
Peak level 93.4 %
Track quality 100.0 %
Test CRC 65576032
Copy CRC 65576032
Copy OK
Track 18
Filename C:\My Music\Stevie Wonder - The Definitive Collection\Disc 1\18 - Living For The City - Stevie Wonder.wav
Pre-gap length 0:00:01.77
Peak level 88.5 %
Track quality 100.0 %
Test CRC 4B8F844C
Copy CRC 4B8F844C
Copy OK
Track 19
Filename C:\My Music\Stevie Wonder - The Definitive Collection\Disc 1\19 - Part-Time Lover - Stevie Wonder.wav
Pre-gap length 0:00:01.77
Peak level 65.5 %
Track quality 100.0 %
Test CRC 7E173B3D
Copy CRC 7E173B3D
Copy OK
No errors occured
End of status report
Лог 2-го CD
EAC extraction logfile from 28. July 2007, 19:47 for CD
Stevie Wonder / The Definitive Collection (Disc 2)
Used drive : TSSTcorpCD/DVDW SH-S182M Adapter: 1 ID: 1
Read mode : Secure with NO C2, accurate stream, disable cache
Read offset correction : 6
Overread into Lead-In and Lead-Out : No
Used output format : C:\Program Files\Exact Audio Copy\flac.exe (User Defined Encoder)
192 kBit/s
Additional command line options : -8 -A tukey(0.25) -A gauss(0.1875) -b 4096 -V -T "artist=%a" -T "title=%t" -T "album=%g" -T "date=%y" -T "tracknumber=%n" -T "genre=%m" %s --sector-align
Other options :
Fill up missing offset samples with silence : Yes
Delete leading and trailing silent blocks : No
Installed external ASPI interface
Track 1
Filename C:\My Music\Stevie Wonder - The Definitive Collection\Disc 2\01 - For Once In My Life - Stevie Wonder.wav
Pre-gap length 0:00:02.00
Peak level 100.0 %
Track quality 100.0 %
Test CRC 832AC761
Copy CRC 832AC761
Copy OK
Track 2
Filename C:\My Music\Stevie Wonder - The Definitive Collection\Disc 2\02 - Uptight (Everything's Alright) - Stevie Wonder.wav
Peak level 91.5 %
Track quality 100.0 %
Test CRC 5BF7BFF0
Copy CRC 5BF7BFF0
Copy OK
Track 3
Filename C:\My Music\Stevie Wonder - The Definitive Collection\Disc 2\03 - We Can Work It Out - Stevie Wonder.wav
Peak level 90.1 %
Track quality 100.0 %
Test CRC A21571CC
Copy CRC A21571CC
Copy OK
Track 4
Filename C:\My Music\Stevie Wonder - The Definitive Collection\Disc 2\04 - Signed, Sealed, Delivered I'm Yours - Stevie Wonder.wav
Peak level 100.0 %
Track quality 100.0 %
Test CRC CA2F4707
Copy CRC CA2F4707
Copy OK
Track 5
Filename C:\My Music\Stevie Wonder - The Definitive Collection\Disc 2\05 - Yester-Me, Yester-You, Yesterday - Stevie Wonder.wav
Peak level 88.0 %
Track quality 100.0 %
Test CRC DEB2EE07
Copy CRC DEB2EE07
Copy OK
Track 6
Filename C:\My Music\Stevie Wonder - The Definitive Collection\Disc 2\06 - I'm Wondering - Stevie Wonder.wav
Peak level 93.3 %
Track quality 100.0 %
Test CRC C1A3294C
Copy CRC C1A3294C
Copy OK
Track 7
Filename C:\My Music\Stevie Wonder - The Definitive Collection\Disc 2\07 - My Cherie Armour - Stevie Wonder.wav
Pre-gap length 0:00:01.04
Peak level 100.0 %
Track quality 100.0 %
Test CRC B402B223
Copy CRC B402B223
Copy OK
Track 8
Filename C:\My Music\Stevie Wonder - The Definitive Collection\Disc 2\08 - You Are The Sunshine Of My Life - Stevie Wonder.wav
Pre-gap length 0:00:01.20
Peak level 100.0 %
Track quality 100.0 %
Test CRC 7795B832
Copy CRC 7795B832
Copy OK
Track 9
Filename C:\My Music\Stevie Wonder - The Definitive Collection\Disc 2\09 - I Don't Know Why (I Love You) - Stevie Wonder.wav
Peak level 94.5 %
Track quality 99.9 %
Test CRC 51040EB5
Copy CRC 51040EB5
Copy OK
Track 10
Filename C:\My Music\Stevie Wonder - The Definitive Collection\Disc 2\10 - A Place In The Sun - Stevie Wonder.wav
Peak level 83.3 %
Track quality 100.0 %
Test CRC EF61C8D4
Copy CRC EF61C8D4
Copy OK
Track 11
Filename C:\My Music\Stevie Wonder - The Definitive Collection\Disc 2\11 - Blowin' In The Wind - Stevie Wonder.wav
Peak level 78.7 %
Track quality 100.0 %
Test CRC 084385E0
Copy CRC 084385E0
Copy OK
Track 12
Filename C:\My Music\Stevie Wonder - The Definitive Collection\Disc 2\12 - Send One Your Love - Stevie Wonder.wav
Pre-gap length 0:00:01.20
Peak level 100.0 %
Track quality 100.0 %
Test CRC 888468B0
Copy CRC 888468B0
Copy OK
Track 13
Filename C:\My Music\Stevie Wonder - The Definitive Collection\Disc 2\13 - Pastime Paradise - Stevie Wonder.wav
Peak level 100.0 %
Track quality 100.0 %
Test CRC CA0E3E7B
Copy CRC CA0E3E7B
Copy OK
Track 14
Filename C:\My Music\Stevie Wonder - The Definitive Collection\Disc 2\14 - I Ain't Gonna Stand For It - Stevie Wonder.wav
Peak level 100.0 %
Track quality 100.0 %
Test CRC A0521631
Copy CRC A0521631
Copy OK
Track 15
Filename C:\My Music\Stevie Wonder - The Definitive Collection\Disc 2\15 - Fingertips (Parts 1 & 2) - Stevie Wonder.wav
Peak level 100.0 %
Track quality 100.0 %
Test CRC 45156BF2
Copy CRC 45156BF2
Copy OK
Track 16
Filename C:\My Music\Stevie Wonder - The Definitive Collection\Disc 2\16 - Boogie On Reggae Woman - Stevie Wonder.wav
Pre-gap length 0:00:02.04
Peak level 89.3 %
Track quality 100.0 %
Test CRC 5D16FFB6
Copy CRC 5D16FFB6
Copy OK
Track 17
Filename C:\My Music\Stevie Wonder - The Definitive Collection\Disc 2\17 - You Haven't Done Nothin' - Stevie Wonder.wav
Peak level 100.0 %
Track quality 100.0 %
Test CRC DDAA41FC
Copy CRC DDAA41FC
Copy OK
Track 18
Filename C:\My Music\Stevie Wonder - The Definitive Collection\Disc 2\18 - He's Misstra Know It All - Stevie Wonder.wav
Peak level 100.0 %
Track quality 100.0 %
Test CRC 1E6AA3D6
Copy CRC 1E6AA3D6
Copy OK
Track 19
Filename C:\My Music\Stevie Wonder - The Definitive Collection\Disc 2\19 - Happy Birthday - Stevie Wonder.wav
Peak level 100.0 %
Track quality 100.0 %
Test CRC E3ECFFDA
Copy CRC E3ECFFDA
Copy OK
No errors occured
End of status report
Спектрограммы