Самогонщики (Леонид Гайдай) [1962, короткометражка, комедия, BDRip, HD (1080p, 720p)] Original


Общая информация

Год выпуска: 1962
Страна: CCCP
Жанр: короткометражка, комедия
Продолжительность: 00:18:59



Создатели и актеры

Режиссеры: Леонид Гайдай
В ролях: Евгений Моргунов, Юрий Никулин, Георгий Вицин
Сценарий: Константин Бровин, Леонид Гайдай



Описание

Трус, Балбес и Бывалый решают поставить на широкую ногу изготовление самогона — и снова фиаско…



Технические параметры

Исходник: Blu-ray
Формат: MP4 (контейнер m4v)
Перевод: Не требуется
Субтитры: Нет
iTunes Meta Tags
Код:
XID: Apple:vendor_id:1962-43608
contentID: 43608
Screenwriters: Константин Бровин, Леонид Гайдай
Director: Леонид Гайдай
Cast: Евгений Моргунов, Юрий Никулин, Георгий Вицин
Long Description: Трус, Балбес и Бывалый решают поставить на широкую ногу изготовление самогона — и снова фиаско…
Description: Трус, Балбес и Бывалый решают поставить на широкую ногу изготовление самогона — и снова фиаско…
Release Date: 1962-01-09T07:00:00Z
Genre: Comedy
Artist: Леонид Гайдай
Name: Самогонщики

HD 1080p

Видео: H.264, 1480 x 1080px (1,37:1), 23.976 fps, ~13800 kbps
Аудио 1: Русский (AAC Stereo 48 kHz, 160 kbps)
Аудио 2: Русский (Dolby Digital 5.1 48 kHz, 448 kbps)
Скриншоты HD 1080p

Media Info
Код:
Общее
Полное имя : /Users/mihailsokolov/Desktop/Samogonschiki/Samogonschiki (1080p HD).m4v
Формат : MPEG-4
Идентификатор кодека : M4V
Размер файла : 1,91 Гбайт
Продолжительность : 18 м.
Режим общего битрейта : Переменный
Общий поток : 14,4 Мбит/сек
Название фильма : Самогонщики
Исполнитель : Леонид Гайдай
Жанр : Comedy
Дата записи : UTC 1962-01-09 07:00:00
Дата кодирования : UTC 2013-04-20 19:00:09
Дата пометки : UTC 2013-04-22 15:44:36
Обложка : Yes
desc : Трус, Балбес и Бывалый решают поставить на широкую ногу изготовление самогона — и снова фиаско…
ldes : Трус, Балбес и Бывалый решают поставить на широкую ногу изготовление самогона — и снова фиаско…
hdvd : 2
stik : 9
rtng : 0
cnID : 43608
xid : Apple:vendor_id:1962-43608
iTunMOVI : <?xml version="1.0" encoding="UTF-8"?> / <!DOCTYPE plist PUBLIC "-//Apple//DTD PLIST 1.0//EN" "http://www.apple.com/DTDs/PropertyList-1.0.dtd"> / <plist version="1.0"> / <dict> /  <key>cast</key> /  <array> /   <dict> /    <key>name</key> /    <string>Евгений Моргунов</string> /   </dict> /   <dict> /    <key>name</key> /    <string>Юрий Никулин</string> /   </dict> /   <dict> /    <key>name</key> /    <string>Георгий Вицин</string> /   </dict> /  </array> /  <key>directors</key> /  <array> /   <dict> /    <key>name</key> /    <string>Леонид Гайдай</string> /   </dict> /  </array> /  <key>screenwriters</key> /  <array> /   <dict> /    <key>name</key> /    <string>Константин Бровин</string> /   </dict> /   <dict> /    <key>name</key> /    <string>Леонид Гайдай</string> /   </dict> /  </array> / </dict> / </plist>
Видео
Идентификатор : 1
Формат : AVC
Формат/Информация : Advanced Video Codec
Профиль формата : High@L4.0
Параметр CABAC формата : Да
Параметр ReFrames формата : 4 кадра
Идентификатор кодека : avc1
Идентификатор кодека/Информация : Advanced Video Coding
Продолжительность : 18 м.
Битрейт : 13,8 Мбит/сек
Максимальный битрейт : 25,8 Мбит/сек
Ширина : 1480 пикселей
Высота : 1080 пикселей
Соотношение сторон : 1,370
Режим частоты кадров : Постоянный
Частота кадров : 23,976 кадра/сек
Цветовое пространство : YUV
Субдискретизация насыщенности : 4:2:0
Битовая глубина : 8 бит
Тип развёртки : Прогрессивная
Бит/(Пиксели*Кадры) : 0.360
Размер потока : 1,83 Гбайт (96%)
Библиотека кодирования : x264 core 120
Настройки программы : cabac=1 / ref=4 / deblock=1:-3:-3 / analyse=0x3:0x113 / me=umh / subme=9 / psy=1 / psy_rd=1.00:0.00 / mixed_ref=1 / me_range=32 / chroma_me=1 / trellis=2 / 8x8dct=1 / cqm=0 / deadzone=21,11 / fast_pskip=1 / chroma_qp_offset=-2 / threads=12 / sliced_threads=0 / nr=0 / decimate=1 / interlaced=0 / bluray_compat=0 / constrained_intra=0 / bframes=8 / b_pyramid=0 / b_adapt=1 / b_bias=0 / direct=1 / weightb=0 / open_gop=0 / weightp=0 / keyint=240 / keyint_min=24 / scenecut=40 / intra_refresh=0 / rc_lookahead=40 / rc=2pass / mbtree=1 / bitrate=13800 / ratetol=1.0 / qcomp=0.60 / qpmin=3 / qpmax=69 / qpstep=4 / cplxblur=20.0 / qblur=0.5 / vbv_maxrate=25000 / vbv_bufsize=25000 / nal_hrd=none / ip_ratio=1.40 / aq=1:0.80
Язык : Russian
Дата кодирования : UTC 2013-04-20 19:00:09
Дата пометки : UTC 2013-04-20 19:00:21
Основные цвета : BT.709
Характеристики трансфера : BT.709
Коэффициенты матрицы : BT.709
Аудио #1
Идентификатор : 2
Формат : AAC
Формат/Информация : Advanced Audio Codec
Профиль формата : LC
Идентификатор кодека : 40
Продолжительность : 18 м.
Вид битрейта : Переменный
Битрейт : 165 Кбит/сек
Максимальный битрейт : 243 Кбит/сек
Каналы : 2 канала
Расположение каналов : Front: L R
Частота : 48,0 КГц
Метод сжатия : С потерями
Размер потока : 22,3 Мбайт (1%)
Язык : Russian
Дата кодирования : UTC 2013-04-22 15:44:04
Дата пометки : UTC 2013-04-22 15:44:05
Аудио #2
Идентификатор : 3
Формат : AC-3
Формат/Информация : Audio Coding 3
Расширение режима : CM (complete main)
Параметр Endianness формата : Big
Идентификатор кодека : ac-3
Продолжительность : 18 м.
Вид битрейта : Постоянный
Битрейт : 448 Кбит/сек
Каналы : 6 каналов
Расположение каналов : Front: L C R, Side: L R, LFE
Частота : 48,0 КГц
Битовая глубина : 16 бит
Метод сжатия : С потерями
Размер потока : 60,8 Мбайт (3%)
Язык : Russian
Дата кодирования : UTC 2013-04-22 15:44:04
Дата пометки : UTC 2013-04-22 15:44:14
x264 Log
Код:
x264 [info]: frame I:374   Avg QP:20.11  size:176427  PSNR Mean Y:44.60 U:53.38 V:52.19 Avg:46.01 Global:45.76
x264 [info]: frame P:15683 Avg QP:21.36  size:102560  PSNR Mean Y:41.73 U:50.85 V:49.77 Avg:43.17 Global:42.96
x264 [info]: frame B:11242 Avg QP:23.74  size: 25750  PSNR Mean Y:40.86 U:50.87 V:49.77 Avg:42.35 Global:41.89
x264 [info]: consecutive B-frames: 19.1% 77.2%  3.2%  0.0%  0.1%  0.0%  0.0%  0.0%  0.4%
x264 [info]: mb I  I16..4: 10.4% 66.0% 23.6%
x264 [info]: mb P  I16..4:  0.7%  7.9%  1.1%  P16..4: 42.9% 30.7% 14.0%  0.0%  0.0%    skip: 2.6%
x264 [info]: mb B  I16..4:  0.0%  0.7%  0.1%  B16..8: 50.6% 13.3%  3.6%  direct: 4.4%  skip:27.3%  L0:44.0% L1:46.6% BI: 9.4%
x264 [info]: 8x8 transform intra:78.4% inter:49.3%
x264 [info]: coded y,uvDC,uvAC intra: 96.8% 61.8% 19.0% inter: 54.1% 25.2% 1.2%
x264 [info]: i16 v,h,dc,p: 10%  7% 33% 50%
x264 [info]: i8 v,h,dc,ddl,ddr,vr,hd,vl,hu: 11%  8%  5% 10% 15% 14% 14% 11% 13%
x264 [info]: i4 v,h,dc,ddl,ddr,vr,hd,vl,hu:  9%  8%  5%  9% 14% 14% 14% 12% 15%
x264 [info]: i8c dc,h,v,p: 39% 27% 18% 15%
x264 [info]: ref P L0: 77.4%  9.9%  7.9%  4.8%
x264 [info]: ref B L0: 95.9%  2.6%  1.5%
x264 [info]: SSIM Mean Y:0.9614203 (14.136db)
x264 [info]: PSNR Mean Y:41.410 U:50.894 V:49.800 Avg:42.872 Global:42.512 kb/s:13798.85

HD 720p

Видео: H.264, 988 x 720px (1.37:1), 23.976 fps, ~7000 kbps
Аудио 1: Русский (AAC Stereo 48 kHz, 160 kbps)
Аудио 2: Русский (Dolby Digital 5.1 48 kHz, 448 kbps)
Скриншоты HD 720p

Media Info
Код:
Общее
Полное имя : /Users/mihailsokolov/Desktop/Samogonschiki/Samogonschiki (HD).m4v
Формат : MPEG-4
Идентификатор кодека : M4V
Размер файла : 1,01 Гбайт
Продолжительность : 18 м.
Режим общего битрейта : Переменный
Общий поток : 7614 Кбит/сек
Название фильма : Самогонщики
Исполнитель : Леонид Гайдай
Жанр : Comedy
Дата записи : UTC 1962-01-09 07:00:00
Дата кодирования : UTC 2013-04-20 19:00:38
Дата пометки : UTC 2013-04-22 15:47:33
Обложка : Yes
desc : Трус, Балбес и Бывалый решают поставить на широкую ногу изготовление самогона — и снова фиаско…
ldes : Трус, Балбес и Бывалый решают поставить на широкую ногу изготовление самогона — и снова фиаско…
hdvd : 1
stik : 9
rtng : 0
cnID : 43608
xid : Apple:vendor_id:1962-43608
iTunMOVI : <?xml version="1.0" encoding="UTF-8"?> / <!DOCTYPE plist PUBLIC "-//Apple//DTD PLIST 1.0//EN" "http://www.apple.com/DTDs/PropertyList-1.0.dtd"> / <plist version="1.0"> / <dict> /  <key>cast</key> /  <array> /   <dict> /    <key>name</key> /    <string>Евгений Моргунов</string> /   </dict> /   <dict> /    <key>name</key> /    <string>Юрий Никулин</string> /   </dict> /   <dict> /    <key>name</key> /    <string>Георгий Вицин</string> /   </dict> /  </array> /  <key>directors</key> /  <array> /   <dict> /    <key>name</key> /    <string>Леонид Гайдай</string> /   </dict> /  </array> /  <key>screenwriters</key> /  <array> /   <dict> /    <key>name</key> /    <string>Константин Бровин</string> /   </dict> /   <dict> /    <key>name</key> /    <string>Леонид Гайдай</string> /   </dict> /  </array> / </dict> / </plist>
Видео
Идентификатор : 1
Формат : AVC
Формат/Информация : Advanced Video Codec
Профиль формата : High@L3.1
Параметр CABAC формата : Нет
Параметр ReFrames формата : 3 кадра
Идентификатор кодека : avc1
Идентификатор кодека/Информация : Advanced Video Coding
Продолжительность : 18 м.
Битрейт : 7000 Кбит/сек
Максимальный битрейт : 13,0 Мбит/сек
Ширина : 988 пикселей
Высота : 720 пикселей
Соотношение сторон : 1,372
Режим частоты кадров : Постоянный
Частота кадров : 23,976 кадра/сек
Цветовое пространство : YUV
Субдискретизация насыщенности : 4:2:0
Битовая глубина : 8 бит
Тип развёртки : Прогрессивная
Бит/(Пиксели*Кадры) : 0.410
Размер потока : 949 Мбайт (92%)
Библиотека кодирования : x264 core 120
Настройки программы : cabac=0 / ref=3 / deblock=1:-3:-3 / analyse=0x3:0x113 / me=umh / subme=9 / psy=1 / psy_rd=1.00:0.00 / mixed_ref=1 / me_range=32 / chroma_me=1 / trellis=0 / 8x8dct=1 / cqm=0 / deadzone=21,11 / fast_pskip=1 / chroma_qp_offset=-2 / threads=12 / sliced_threads=0 / nr=0 / decimate=1 / interlaced=0 / bluray_compat=0 / constrained_intra=0 / bframes=8 / b_pyramid=0 / b_adapt=1 / b_bias=0 / direct=1 / weightb=0 / open_gop=0 / weightp=0 / keyint=240 / keyint_min=24 / scenecut=40 / intra_refresh=0 / rc_lookahead=40 / rc=2pass / mbtree=1 / bitrate=7000 / ratetol=1.0 / qcomp=0.60 / qpmin=3 / qpmax=69 / qpstep=4 / cplxblur=20.0 / qblur=0.5 / vbv_maxrate=9500 / vbv_bufsize=9500 / nal_hrd=none / ip_ratio=1.40 / aq=1:0.80
Язык : Russian
Дата кодирования : UTC 2013-04-20 19:00:38
Дата пометки : UTC 2013-04-20 19:00:45
Основные цвета : BT.709
Характеристики трансфера : BT.709
Коэффициенты матрицы : BT.709
Аудио #1
Идентификатор : 2
Формат : AAC
Формат/Информация : Advanced Audio Codec
Профиль формата : LC
Идентификатор кодека : 40
Продолжительность : 18 м.
Вид битрейта : Переменный
Битрейт : 165 Кбит/сек
Максимальный битрейт : 243 Кбит/сек
Каналы : 2 канала
Расположение каналов : Front: L R
Частота : 48,0 КГц
Метод сжатия : С потерями
Размер потока : 22,3 Мбайт (2%)
Язык : Russian
Дата кодирования : UTC 2013-04-22 15:47:02
Дата пометки : UTC 2013-04-22 15:47:03
Аудио #2
Идентификатор : 3
Формат : AC-3
Формат/Информация : Audio Coding 3
Расширение режима : CM (complete main)
Параметр Endianness формата : Big
Идентификатор кодека : ac-3
Продолжительность : 18 м.
Вид битрейта : Постоянный
Битрейт : 448 Кбит/сек
Каналы : 6 каналов
Расположение каналов : Front: L C R, Side: L R, LFE
Частота : 48,0 КГц
Битовая глубина : 16 бит
Метод сжатия : С потерями
Размер потока : 60,8 Мбайт (6%)
Язык : Russian
Дата кодирования : UTC 2013-04-22 15:47:02
Дата пометки : UTC 2013-04-22 15:47:11
x264 Log
Код:
x264 [info]: frame I:351   Avg QP:19.26  size:115257  PSNR Mean Y:43.85 U:51.97 V:51.11 Avg:45.23 Global:45.01
x264 [info]: frame P:15201 Avg QP:20.40  size: 54632  PSNR Mean Y:41.40 U:49.88 V:48.91 Avg:42.81 Global:42.50
x264 [info]: frame B:11747 Avg QP:23.41  size: 10612  PSNR Mean Y:40.49 U:49.88 V:48.88 Avg:41.94 Global:41.41
x264 [info]: consecutive B-frames: 17.3% 73.4%  8.5%  0.3%  0.1%  0.0%  0.0%  0.0%  0.4%
x264 [info]: mb I  I16..4:  2.4% 59.1% 38.5%
x264 [info]: mb P  I16..4:  0.3%  5.9%  3.2%  P16..4: 39.3% 32.9% 15.6%  0.0%  0.0%    skip: 2.8%
x264 [info]: mb B  I16..4:  0.0%  0.6%  0.6%  B16..8: 38.9% 14.9%  3.3%  direct: 4.4%  skip:37.3%  L0:35.5% L1:52.8% BI:11.7%
x264 [info]: 8x8 transform intra:60.9% inter:42.5%
x264 [info]: coded y,uvDC,uvAC intra: 97.2% 67.7% 28.5% inter: 45.6% 16.9% 1.6%
x264 [info]: i16 v,h,dc,p: 22%  9%  5% 65%
x264 [info]: i8 v,h,dc,ddl,ddr,vr,hd,vl,hu:  9%  7%  3% 12% 16% 16% 15% 12% 11%
x264 [info]: i4 v,h,dc,ddl,ddr,vr,hd,vl,hu:  7%  6%  2% 12% 18% 17% 15% 12% 10%
x264 [info]: i8c dc,h,v,p: 48% 19% 21% 12%
x264 [info]: ref P L0: 82.5%  9.7%  7.8%
x264 [info]: ref B L0: 95.3%  4.7%
x264 [info]: SSIM Mean Y:0.9638743 (14.422db)
x264 [info]: PSNR Mean Y:41.042 U:49.910 V:48.926 Avg:42.465 Global:42.022 kb/s:6995.17


Для просмотра данного релиза на компьютере с ОС Windows рекомендуется использовать