Пасхальный парад / Easter Parade (Чарльз Уолтерс / Charles Walters) [1948, США, мюзикл, мелодрама, BDRip 1080p] 2x MVO + Sub Eng + Original Eng


Страна: США
Жанр: мюзикл, мелодрама
Год выпуска: 1948
Продолжительность: 01:43:22
Перевод 1: профессиональный (многоголосый закадровый) (Домашний),
Перевод 2: профессиональный (многоголосый закадровый) (Светла)
Субтитры: английские

Режиссер: Чарльз Уолтерс / Charles Walters
В ролях: Джуди Гарлэнд, Фред Астер, Питер Лоуфорд, Энн Миллер, Джулс Маншин, Клинтон Сандберг, Ричард Биверс, Джун Гэйл, Сара Шэйн, Лола Олбрайт, Ширли Баллард, Джимми Бейтс, Хэл Белл, Маргарет Берт, Питер Чонг, Джимми Додд, Долорес Донлон, Гарри Фокс, Сиг Фролич, Рут Холл, Хэлена Хей, Шеп Хотон, Марджори Джексон, Патриция Джексон, Боб Джеллисон, Дорис Кемпер, Гэйл Лангфорд, Джои Лэнсинг, Нолан Лири, Джени Ле Гон, Фрэнк Майо, Харольд Миллер, Ховард М. Митчелл, Роберт Эмметт О’Коннор, Альберт Поллет, Энджи О. Пулис, Бобби Прист, Жан Ромер, Линн Ромер, Ральф Санфорд, Дик Симмонс, Ди Тернелл, Бени Венута, Патриция Уолкер

Описание:Дон Хьюз танцует дуэтом с Надин Хэйл, однако буквально накануне традиционного ежегодного пасхального шоу Надин объявляет, что начинает сольную карьеру. Дон не стал впадать в отчаянье и взял себе новую партнершу — Ханну Браун, чтобы через год показать вместе с ней свой новый танцевальный номер на пасхальном шоу. Их выступление произвело настоящий фурор и им предложили контракт от знаменитого шоу Зигфилда. Но Хьюз отказывается от чудесного предложения, потому что у Зигфилда танцует и Надин, с которой он не желает общаться, помня ее предательство. К тому же он, Хьюз, уже успел влюбиться в Ханну, хотя и старается не обнаруживать свои чувства… Ханна же убеждена, что Дон все еще любит Надин.

Качество видео: BDRip (1080p)
Формат видео: MKV
Видео: MPEG-4 AVC, 1488x1080, 23.976 fps, 8315 kbps
Аудио 1: Russian (AC3, 48 kHz, 2 ch, 192 kbps) - Домашний
Аудио 2: Russian (AC3, 48 kHz, 2 ch, 192 kbps) - Светла
Аудио 3: English (DTS, 48 kHz, 1 ch, 768 kbps)
Формат субтитров: softsub (SRT)

MediaInfo
Код:
Общее
Полное имя                               : E:\Video\Easter.Parade.1948.P.BDRip.1080p.mkv
Формат                                   : Matroska
Версия формата                           : Version 4 / Version 2
Размер файла                             : 6,84 Гбайт
Продолжительность                        : 1 ч. 43 м.
Общий поток                              : 9467 Кбит/сек
Дата кодирования                         : UTC 2013-02-12 21:56:29
Программа кодирования                    : mkvmerge v6.0.0 ('Coming Up For Air') built on Jan 20 2013 09:52:00
Библиотека кодирования                   : libebml v1.3.0 + libmatroska v1.4.0
Видео
Идентификатор                            : 1
Формат                                   : AVC
Формат/Информация                        : Advanced Video Codec
Профиль формата                          : High@L4.1
Параметр CABAC формата                   : Да
Параметр ReFrames формата                : 4 кадра
Идентификатор кодека                     : V_MPEG4/ISO/AVC
Продолжительность                        : 1 ч. 43 м.
Битрейт                                  : 8315 Кбит/сек
Ширина                                   : 1488 пикселей
Высота                                   : 1080 пикселей
Соотношение сторон                       : 1,378
Режим частоты кадров                     : Постоянный
Частота кадров                           : 23,976 кадра/сек
Цветовое пространство                    : YUV
Субдискретизация насыщенности            : 4:2:0
Битовая глубина                          : 8 бит
Тип развёртки                            : Прогрессивная
Бит/(Пиксели*Кадры)                      : 0.216
Размер потока                            : 5,87 Гбайт (86%)
Библиотека кодирования                   : x264 core 129 r2245 bc13772
Настройки программы                      : cabac=1 / ref=4 / deblock=1:0:0 / analyse=0x3:0x133 / me=umh / subme=7 / psy=1 / psy_rd=1.00:0.10 / mixed_ref=1 / me_range=16 / chroma_me=1 / trellis=1 / 8x8dct=1 / cqm=0 / deadzone=21,11 / fast_pskip=0 / chroma_qp_offset=-3 / threads=12 / lookahead_threads=2 / sliced_threads=0 / nr=0 / decimate=1 / interlaced=0 / bluray_compat=0 / constrained_intra=0 / bframes=3 / b_pyramid=2 / b_adapt=1 / b_bias=0 / direct=3 / weightb=1 / open_gop=0 / weightp=2 / keyint=240 / keyint_min=23 / scenecut=40 / intra_refresh=0 / rc_lookahead=40 / rc=2pass / mbtree=1 / bitrate=8315 / ratetol=1.0 / qcomp=0.60 / qpmin=0 / qpmax=69 / qpstep=4 / cplxblur=20.0 / qblur=0.5 / ip_ratio=1.40 / aq=1:1.00
Язык                                     : English
Default                                  : Да
Forced                                   : Нет
Аудио #1
Идентификатор                            : 2
Формат                                   : AC-3
Формат/Информация                        : Audio Coding 3
Расширение режима                        : CM (complete main)
Параметр Endianness формата              : Big
Идентификатор кодека                     : A_AC3
Продолжительность                        : 1 ч. 43 м.
Вид битрейта                             : Постоянный
Битрейт                                  : 192 Кбит/сек
Каналы                                   : 2 канала
Расположение каналов                     : Front: L R
Частота                                  : 48,0 КГц
Битовая глубина                          : 16 бит
Метод сжатия                             : С потерями
Размер потока                            : 142 Мбайт (2%)
Заголовок                                : MVO (Domashniy)
Язык                                     : Russian
Default                                  : Да
Forced                                   : Нет
Аудио #2
Идентификатор                            : 3
Формат                                   : AC-3
Формат/Информация                        : Audio Coding 3
Расширение режима                        : CM (complete main)
Параметр Endianness формата              : Big
Идентификатор кодека                     : A_AC3
Продолжительность                        : 1 ч. 43 м.
Вид битрейта                             : Постоянный
Битрейт                                  : 192 Кбит/сек
Каналы                                   : 2 канала
Расположение каналов                     : Front: L R
Частота                                  : 48,0 КГц
Битовая глубина                          : 16 бит
Метод сжатия                             : С потерями
Размер потока                            : 142 Мбайт (2%)
Заголовок                                : MVO (Svetla)
Язык                                     : Russian
Default                                  : Нет
Forced                                   : Нет
Аудио #3
Идентификатор                            : 4
Формат                                   : DTS
Формат/Информация                        : Digital Theater Systems
Режим                                    : 16
Параметр Endianness формата              : Big
Идентификатор кодека                     : A_DTS
Продолжительность                        : 1 ч. 43 м.
Вид битрейта                             : Постоянный
Битрейт                                  : 768 Кбит/сек
Каналы                                   : 1 канал
Расположение каналов                     : Front: C
Частота                                  : 48,0 КГц
Битовая глубина                          : 24 бит
Метод сжатия                             : С потерями
Размер потока                            : 568 Мбайт (8%)
Заголовок                                : Original
Язык                                     : English
Default                                  : Нет
Forced                                   : Нет
Текст
Идентификатор                            : 5
Формат                                   : UTF-8
Идентификатор кодека                     : S_TEXT/UTF8
Идентификатор кодека/Информация          : UTF-8 Plain Text
Язык                                     : English
Default                                  : Нет
Forced                                   : Нет
Скриншоты