(Downtempo, Deep House, Ambient) VA - Real Ibiza 2 (2CD) [REACT CD 154] - 1999, FLAC (image+.cue), lossless


Жанр: Downtempo, Deep House, Ambient
Страна-производитель диска: UK
Год издания: 1999
Издатель (лейбл): REACT
Номер по каталогу: REACT CD 154
Аудиокодек: FLAC (*.flac)
Тип рипа: image+.cue
Битрейт аудио: lossless
Продолжительность: 1:05:04 + 1:05:08
Источник (релизер): VeryCD
Наличие сканов в содержимом раздачи: да
Треклист:
CD1
1. Nightmares On Wax - Les Nuits (Album Mix) (6:20)
2. Rollercone - Daydreaming (6:06)
3. Muki - Fullscope (3:31)
4. Larry Heard - Precious Tears (4:28)
5. Rae & Christian feat. Veba - Spellbound (5:42)
6. Da Lata - Pra Mahna (6:14)
7. USG presents African Blues - Sunpower (8:51)
8. Attaboy - New World (8:00)
9. A Man Called Adam - The Longest Day (7:34)
10. Ibizarre - Smooth Temptation (4:17)
11. Guesch Patti - Blonde (3:57)
CD2
1. Tupi Nago - Nena (4:32)
2. Idjut Boys and Laj - Whok-Tish (11:12)
3. Alania - Jah Jah Is Coming (1:46)
4. Dans-K feat. Axxe - The Pain Remains (4 Rooms & 16 Walls Baseball Cap Remix) (3:12)
5. James Asher - Red Desert (Yellow Magnetic Star Remix) (5:27)
6. Matthew Snowden feat. Nico-D - The Real Thing (3:31)
7. Stonecoat - Tsali (3:28)
8. Two Lone Swordsmen - Rico's Helly (9:17)
9. Shahin & Sepehr - Jakarta (4:22)
10. José Padilla - Las Cazuelas (6:23)
11. Coco Steel & Lovebomb - Clear Skies (Ibizarre Remix) (5:22)
12. Language Lab - Burning Disaster (Groove Armada Bedtime Story Mix) (6:30)
EAC Log CD1
EAC extraction logfile from 18. May 2007, 12:30 for CD
Various Artists / Real Ibiza 2 (Disc 1)
Used drive : TSSTcorpCD/DVDW TS-H652L Adapter: 3 ID: 0
Read mode : Secure with NO C2, accurate stream, disable cache
Read offset correction : 6
Overread into Lead-In and Lead-Out : No
Used output format : Internal WAV Routines
44.100 Hz; 16 Bit; Stereo
Use compression offset : 6
Other options :
Fill up missing offset samples with silence : Yes
Delete leading and trailing silent blocks : No
Installed external ASPI interface
Range status and errors
Selected range
Filename C:\Documents and Settings\HP_Propriйtaire\Bureau\Various Artists - Real Ibiza 2 (Disc 1).wav
Peak level 100.0 %
Range quality 100.0 %
CRC 2A932746
Copy OK
No errors occured
End of status report
------------------------------------------------------------
EAC extraction logfile from 18. May 2007, 12:31 for CD
Various Artists / Real Ibiza 2 (Disc 1)
Used drive : TSSTcorpCD/DVDW TS-H652L Adapter: 3 ID: 0
Read mode : Secure with NO C2, accurate stream, disable cache
Read offset correction : 6
Overread into Lead-In and Lead-Out : No
Used output format : Internal WAV Routines
44.100 Hz; 16 Bit; Stereo
Use compression offset : 6
Other options :
Fill up missing offset samples with silence : Yes
Delete leading and trailing silent blocks : No
Installed external ASPI interface
Range status and errors
Selected range
Filename C:\Documents and Settings\HP_Propriйtaire\Bureau\Various Artists - Real Ibiza 2 (Disc 1).wav
Peak level 100.0 %
Range quality 100.0 %
CRC 2A932746
Copy OK
No errors occured
End of status report
EAC Log CD1
EAC extraction logfile from 18. May 2007, 12:43 for CD
Various Artists / Real Ibiza 2 (Disc 2)
Used drive : TSSTcorpCD/DVDW TS-H652L Adapter: 3 ID: 0
Read mode : Secure with NO C2, accurate stream, disable cache
Read offset correction : 6
Overread into Lead-In and Lead-Out : No
Used output format : Internal WAV Routines
44.100 Hz; 16 Bit; Stereo
Use compression offset : 6
Other options :
Fill up missing offset samples with silence : Yes
Delete leading and trailing silent blocks : No
Installed external ASPI interface
Range status and errors
Selected range
Filename C:\Documents and Settings\HP_Propriйtaire\Bureau\Various Artists - Real Ibiza 2 (Disc 2).wav
Peak level 100.0 %
Range quality 100.0 %
CRC 936A9222
Copy OK
No errors occured
End of status report
------------------------------------------------------------
EAC extraction logfile from 18. May 2007, 12:43 for CD
Various Artists / Real Ibiza 2 (Disc 2)
Used drive : TSSTcorpCD/DVDW TS-H652L Adapter: 3 ID: 0
Read mode : Secure with NO C2, accurate stream, disable cache
Read offset correction : 6
Overread into Lead-In and Lead-Out : No
Used output format : Internal WAV Routines
44.100 Hz; 16 Bit; Stereo
Use compression offset : 6
Other options :
Fill up missing offset samples with silence : Yes
Delete leading and trailing silent blocks : No
Installed external ASPI interface
Range status and errors
Selected range
Filename C:\Documents and Settings\HP_Propriйtaire\Bureau\Various Artists - Real Ibiza 2 (Disc 2).wav
Peak level 100.0 %
Range quality 100.0 %
CRC 936A9222
Copy OK
No errors occured
End of status report
CD1.CUE
REM GENRE "Easy Listening"
REM DATE 1999
REM DISCID B00F3F0B
REM COMMENT "ExactAudioCopy v0.95b4"
PERFORMER "Various Artists"
TITLE "Real Ibiza 2 (Disc 1)"
FILE "Various Artists - Real Ibiza 2 (Disc 1).wav" WAVE
TRACK 01 AUDIO
TITLE "Les Nuits (Album Mix)"
PERFORMER "Nightmares On Wax"
INDEX 01 00:00:00
TRACK 02 AUDIO
TITLE "Daydreaming"
PERFORMER "Rollercone"
INDEX 01 06:20:00
TRACK 03 AUDIO
TITLE "Fullscope"
PERFORMER "Muki"
INDEX 01 12:26:20
TRACK 04 AUDIO
TITLE "Precious Tears"
PERFORMER "Larry Heard"
INDEX 01 15:57:25
TRACK 05 AUDIO
TITLE "Spellbound"
PERFORMER "Rae & Christian feat. Veba"
INDEX 01 20:26:00
TRACK 06 AUDIO
TITLE "Pra Mahna"
PERFORMER "Da Lata"
INDEX 01 26:08:41
TRACK 07 AUDIO
TITLE "Sunpower"
PERFORMER "USG presents African Blues"
INDEX 01 32:23:00
TRACK 08 AUDIO
TITLE "New World"
PERFORMER "Attaboy"
INDEX 01 41:14:34
TRACK 09 AUDIO
TITLE "The Longest Day"
PERFORMER "A Man Called Adam"
INDEX 01 49:15:27
TRACK 10 AUDIO
TITLE "Smooth Temptation"
PERFORMER "Ibizarre"
INDEX 01 56:49:37
TRACK 11 AUDIO
TITLE "Blonde"
PERFORMER "Guesch Patti"
INDEX 01 61:06:44
CD2.CUE
REM GENRE "Easy Listening"
REM DATE 1999
REM DISCID B60F440C
REM COMMENT "ExactAudioCopy v0.95b4"
PERFORMER "Various Artists"
TITLE "Real Ibiza 2 (Disc 2)"
FILE "Various Artists - Real Ibiza 2 (Disc 2).wav" WAVE
TRACK 01 AUDIO
TITLE "Nena"
PERFORMER "Tupi Nago"
INDEX 01 00:00:00
TRACK 02 AUDIO
TITLE "Whok-Tish"
PERFORMER "Idjut Boys and Laj"
INDEX 01 04:32:61
TRACK 03 AUDIO
TITLE "Jah Jah Is Coming"
PERFORMER "Alania"
INDEX 01 15:45:37
TRACK 04 AUDIO
TITLE "The Pain Remains (4 Rooms & 16 Walls Baseball Cap Remix)"
PERFORMER "Dans-K feat. Axxe"
INDEX 01 17:31:67
TRACK 05 AUDIO
TITLE "Red Desert (Yellow Magnetic Star Remix)"
PERFORMER "James Asher"
INDEX 01 20:44:37
TRACK 06 AUDIO
TITLE "The Real Thing"
PERFORMER "Matthew Snowden feat. Nico-D"
INDEX 01 26:11:48
TRACK 07 AUDIO
TITLE "Tsali"
PERFORMER "Stonecoat"
INDEX 01 29:43:33
TRACK 08 AUDIO
TITLE "Rico's Helly"
PERFORMER "Two Lone Swordsmen"
INDEX 01 33:12:03
TRACK 09 AUDIO
TITLE "Jakarta"
PERFORMER "Shahin & Sepehr"
INDEX 01 42:29:69
TRACK 10 AUDIO
TITLE "Las Cazuelas"
PERFORMER "Josй Padilla"
INDEX 01 46:51:65
TRACK 11 AUDIO
TITLE "Clear Skies (Ibizarre Remix)"
PERFORMER "Coco Steel & Lovebomb"
INDEX 01 53:15:03
TRACK 12 AUDIO
TITLE "Burning Disaster (Groove Armada Bedtime Story Mix)"
PERFORMER "Language Lab"
INDEX 01 58:37:52
Лог проверки качества

AccurateRip CD1
[pre][CUETools log; Date: 19.12.2012 23:28:14; Version: 2.1.4]
[CTDB TOCID: 4rEK06c4pcSsvUpuN_VzohYJgOA-] found.
Track | CTDB Status
1 | (2/2) Accurately ripped
2 | (2/2) Accurately ripped
3 | (2/2) Accurately ripped
4 | (2/2) Accurately ripped
5 | (2/2) Accurately ripped
6 | (2/2) Accurately ripped
7 | (2/2) Accurately ripped
8 | (2/2) Accurately ripped
9 | (2/2) Accurately ripped
10 | (2/2) Accurately ripped
11 | (2/2) Accurately ripped
[AccurateRip ID: 001a95eb-00e90b74-b00f3f0b] found.
Track [ CRC | V2 ] Status
01 [6387bc94|72f2e6a3] (09+02/13) Accurately ripped
02 [fcc24865|a97ba614] (09+02/13) Accurately ripped
03 [0e99dff9|4c6139d9] (09+02/13) Accurately ripped
04 [c1200d47|c7785930] (09+02/13) Accurately ripped
05 [dadc7f50|595c27e6] (08+02/12) Accurately ripped
06 [2e5d5fbc|d55281c4] (08+02/12) Accurately ripped
07 [00c3f27a|466c664a] (09+02/13) Accurately ripped
08 [b85dcad3|2af3cccf] (09+02/13) Accurately ripped
09 [8882f619|51764e5f] (09+02/13) Accurately ripped
10 [2ec97f70|89fa3957] (09+02/13) Accurately ripped
11 [53e2b75c|f05f621d] (07+02/11) Accurately ripped
Offsetted by -491:
01 [415bd46b] (02/13) Accurately ripped
02 [10112511] (02/13) Accurately ripped
03 [a9c2a478] (02/13) Accurately ripped
04 [717a2234] (02/13) Accurately ripped
05 [15d889ec] (02/12) Accurately ripped
06 [09a66854] (02/12) Accurately ripped
07 [dc4c7438] (02/13) Accurately ripped
08 [cc161303] (02/13) Accurately ripped
09 [93866cc3] (02/13) Accurately ripped
10 [b5ac5081] (02/13) Accurately ripped
11 [046fcc8a] (02/11) Accurately ripped
Track Peak [ CRC32 ] [W/O NULL]
-- 100,0 [2A932746] [A03313EC]
01 100,0 [77DCFAB6] [8956F0CC]
02 99,5 [28773241] [B44C693C]
03 94,4 [C2DAC294] [4703A9B6]
04 95,5 [FFD098E6] [8B2F87BB]
05 98,7 [76E45487] [B6129335]
06 100,0 [37B898F0] [E2820A4E]
07 98,7 [CE7732A4] [58B87A04]
08 100,0 [8C55AD8E] [EA18F160]
09 94,4 [B20DD1C1] [24AF85BA]
10 100,0 [032A5E6E] [20F18FF4]
11 100,0 [759AB5BE] [F6763371]
AccurateRip CD2
[CUETools log; Date: 19.12.2012 23:28:26; Version: 2.1.4]
[CTDB TOCID: MhNmB415ZsawbQzp6zwF7F6rAwE-] found.
Track | CTDB Status
1 | (2/2) Accurately ripped
2 | (2/2) Accurately ripped
3 | (2/2) Accurately ripped
4 | (2/2) Accurately ripped
5 | (2/2) Accurately ripped
6 | (2/2) Accurately ripped
7 | (2/2) Accurately ripped
8 | (2/2) Accurately ripped
9 | (2/2) Accurately ripped
10 | (2/2) Accurately ripped
11 | (2/2) Accurately ripped
12 | (2/2) Accurately ripped
[AccurateRip ID: 001c6ea6-01083ca1-b60f440c] found.
Track [ CRC | V2 ] Status
01 [4010b4cc|cbdd4b51] (08+02/12) Accurately ripped
02 [6c3b56bd|2b74b4b9] (09+02/13) Accurately ripped
03 [f01e796c|0eb26dd6] (09+02/13) Accurately ripped
04 [e4ed036e|fabb0ffe] (08+02/12) Accurately ripped
05 [c0773292|c1937882] (09+02/13) Accurately ripped
06 [cc16a3fd|dbfa8c76] (09+02/13) Accurately ripped
07 [4d547415|33be9c23] (09+02/13) Accurately ripped
08 [c834ec4a|e1d189e6] (09+02/13) Accurately ripped
09 [7befcd2c|d0641b28] (09+02/13) Accurately ripped
10 [e4b3caeb|64d97d99] (09+02/13) Accurately ripped
11 [7419b591|6742ff1b] (09+02/13) Accurately ripped
12 [499e51cd|4d18a311] (08+02/12) Accurately ripped
Offsetted by -667:
01 [4d432460] (02/12) Accurately ripped
02 [cb169d42] (02/13) Accurately ripped
03 [0d416efc] (02/13) Accurately ripped
04 [27bd00a5] (02/12) Accurately ripped
05 [d2bbc95d] (02/13) Accurately ripped
06 [d0b9dc0a] (02/13) Accurately ripped
07 [e2900f95] (02/13) Accurately ripped
08 [9aa7cdfb] (02/13) Accurately ripped
09 [9c1a705f] (02/13) Accurately ripped
10 [a1890b26] (02/13) Accurately ripped
11 [983ad4c0] (02/13) Accurately ripped
12 [6d2ab9eb] (00/12) No match (V2 was not tested)
Track Peak [ CRC32 ] [W/O NULL]
-- 100,0 [936A9222] [083090A0]
01 100,0 [4B85BE22] [EDB88B87]
02 97,0 [22612D6F] [E5E93622]
03 99,7 [505B926E] [8445A54A]
04 98,5 [303FAF78] [C9801298]
05 99,9 [3FE667E7] [61848895]
06 100,0 [39B5D1E8] [74F6D6E6]
07 100,0 [9F5A1BAC] [63501CF6]
08 98,2 [406DD83A] [2721138C]
09 100,0 [93736A51] [3C325F21]
10 100,0 [0CCEFA53] [34D9CD97]
11 100,0 [3280B29B] [C810B8B9]
12 89,1 [4290CDE6] [EFF6CDC2]
auCDtect CD1
PERFORMER: auCDtect Task Manager, ver. 1.5.1RC6 build 1.5.1.7
Copyright (c) 2008-2010 y-soft. All rights reserved

ANALYZER: auCDtect: CD records authenticity detector, version 0.8.2
Copyright (c) 2004 Oleg Berngardt. All rights reserved.
Copyright (c) 2004 Alexander Djourik. All rights reserved.
FILE: Various Artists - Real Ibiza 2 (Disc 1).flac
Size: 423326959 Hash: 2C58C868B82373E7A59DA6D30DE69850 Accuracy: -m0
Conclusion: CDDA 100%
Signature: F836AB5240F5050AB7A9AB861C999C35C046524D
auCDtect CD2
PERFORMER: auCDtect Task Manager, ver. 1.5.1RC6 build 1.5.1.7
Copyright (c) 2008-2010 y-soft. All rights reserved

ANALYZER: auCDtect: CD records authenticity detector, version 0.8.2
Copyright (c) 2004 Oleg Berngardt. All rights reserved.
Copyright (c) 2004 Alexander Djourik. All rights reserved.
FILE: Various Artists - Real Ibiza 2 (Disc 2).flac
Size: 399340026 Hash: CA1F5D66740FE848C33621AD32A032B5 Accuracy: -m0
Conclusion: CDDA 100%
Signature: 2FD07BE14BAE91456F3A37E9B99FC38D43840D06
Скриншот спектра частот