Человек, которого никогда не было / The Man Who Never Was (Роналд Ним / Ronald Neame) [1956, Великобритания, Военный, драма, BDRip 1080p] DVO + Original Eng


Страна: Великобритания
Жанр: Военный, драма
Год выпуска: 1956
Продолжительность: 01:43:00
Перевод: Профессиональный (двухголосый закадровый)
Субтитры: нет
Оригинальная аудиодорожка: английский
Режиссер: Роналд Ним / Ronald Neame
В ролях: Клифтон Уэбб, Глория Грэхам, Роберт Флеминг, Жозефин Гриффин, Стивен Бойд, Лоуренс Нэйсмит, Джефри Кин, Сирил Кьюcак, Луиджи Ваннуччи, Андре Морелл, Джоан Хиксон
Описание: Вторая Мировая война. Это подлинная история об одной из операций Британской разведки в 1943 году. Союзники готовят вторжение в Сицилию и пытаются создать дезинформацию, что целью вторжения является Греция. Решение просто, но изобретательно: тело человека, умершего естественной смертью, оставляют на побережье Испании, переодев в форму летчика британских ВВС, с необходимым пакетом "секретных" документов о высадке Союзников в Греции. Поверит ли в это, немецкое командование...
Доп. информация: Русская дорога взята отсюда , спасибо palmeiras, сохранены оригинальные главы.
Сэмпл:

Тип релиза: BDRip 1080p
Контейнер: MKV
Видео: MPEG4 AVC, 8466 Кбит/сек, 1920x752, 23,976 кадр/сек
Аудио 1: AC3, 2 ch, 192 Кбит/с, 48 KHz (Rus)
Аудио 2: AC3, 2 ch, 640 Кбит/с, 48 KHz (Eng)
MediaInfo
Формат : Matroska
Версия формата : Version 2
Размер файла : 6,70 Гбайт
Продолжительность : 1 ч. 43 м.
Общий поток : 9299 Кбит/сек
Дата кодирования : UTC 2012-11-16 19:52:41
Программа кодирования : mkvmerge v5.4.0 ('Piper') built on Mar 15 2012 19:09:47
Библиотека кодирования : libebml v1.2.3 + libmatroska v1.3.0
Видео
Идентификатор : 1
Формат : AVC
Формат/Информация : Advanced Video Codec
Профиль формата : High@L4.1
Параметр CABAC формата : Да
Параметр ReFrames формата : 4 кадра
Идентификатор кодека : V_MPEG4/ISO/AVC
Продолжительность : 1 ч. 43 м.
Битрейт : 8466 Кбит/сек
Ширина : 1920 пикселей
Высота : 752 пикселя
Соотношение сторон : 2,553
Режим частоты кадров : Постоянный
Частота кадров : 23,976 кадра/сек
Цветовое пространство : YUV
Субдискретизация насыщенности : 4:2:0
Битовая глубина : 8 бит
Тип развёртки : Прогрессивная
Бит/(Пиксели*Кадры) : 0.245
Размер потока : 5,96 Гбайт (89%)
Библиотека кодирования : x264 core 128 r2216 198a7ea
Настройки программы : cabac=1 / ref=4 / deblock=1:0:0 / analyse=0x3:0x133 / me=umh / subme=7 / psy=1 / psy_rd=1.00:0.00 / mixed_ref=1 / me_range=16 / chroma_me=1 / trellis=1 / 8x8dct=1 / cqm=0 / deadzone=21,11 / fast_pskip=0 / chroma_qp_offset=-2 / threads=12 / lookahead_threads=2 / sliced_threads=0 / nr=0 / decimate=1 / interlaced=0 / bluray_compat=0 / constrained_intra=0 / bframes=3 / b_pyramid=2 / b_adapt=2 / b_bias=0 / direct=3 / weightb=1 / open_gop=0 / weightp=2 / keyint=250 / keyint_min=23 / scenecut=40 / intra_refresh=0 / rc_lookahead=50 / rc=2pass / mbtree=1 / bitrate=8466 / ratetol=1.0 / qcomp=0.60 / qpmin=0 / qpmax=69 / qpstep=4 / cplxblur=20.0 / qblur=0.5 / ip_ratio=1.40 / aq=1:1.00
Язык : English
Default : Да
Forced : Нет
Аудио #1
Идентификатор : 2
Формат : AC-3
Формат/Информация : Audio Coding 3
Расширение режима : CM (complete main)
Параметр Endianness формата : Big
Идентификатор кодека : A_AC3
Продолжительность : 1 ч. 43 м.
Вид битрейта : Постоянный
Битрейт : 192 Кбит/сек
Каналы : 2 канала
Расположение каналов : Front: L R
Частота : 48,0 КГц
Битовая глубина : 16 бит
Метод сжатия : С потерями
Размер потока : 142 Мбайт (2%)
Заголовок : MVO
Язык : Russian
Default : Да
Forced : Нет
Аудио #2
Идентификатор : 3
Формат : AC-3
Формат/Информация : Audio Coding 3
Расширение режима : CM (complete main)
Параметр Endianness формата : Big
Идентификатор кодека : A_AC3
Продолжительность : 1 ч. 43 м.
Вид битрейта : Постоянный
Битрейт : 640 Кбит/сек
Каналы : 2 канала
Расположение каналов : Front: L R
Частота : 48,0 КГц
Битовая глубина : 16 бит
Метод сжатия : С потерями
Размер потока : 472 Мбайт (7%)
Язык : English
Default : Нет
Forced : Нет
Меню
00:00:00.000 : en:00:00:00.000
00:04:29.561 : en:00:04:29.561
00:11:09.294 : en:00:11:09.294
00:16:44.962 : en:00:16:44.962
00:22:12.957 : en:00:22:12.957
00:28:28.332 : en:00:28:28.332
00:38:29.933 : en:00:38:29.933
00:45:04.327 : en:00:45:04.327
00:50:37.660 : en:00:50:37.660
00:56:44.151 : en:00:56:44.151
01:00:54.276 : en:01:00:54.276
01:03:53.455 : en:01:03:53.455
01:11:52.934 : en:01:11:52.934
01:21:10.365 : en:01:21:10.365
01:30:41.353 : en:01:30:41.353
01:37:35.475 : en:01:37:35.475
Скриншоты
Без согласования со мной просьба на кинозал не заливать