Веревка / Rope (Альфред Хичкок / Alfred Hitchcock) [1948, США, драма, криминал, детектив, BDRemux 1080p] Dub + 3x MVO + Sub Rus, Eng + Original Eng

MI
Код:
General
Complete name                    : V:\Фильмы\Альфред Хичкок\Веревка (1948. Rope).mkv
Format                           : Matroska
File size                        : 19.5 GiB
Duration                         : 1h 20mn
Overall bit rate                 : 34.7 Mbps
Movie name                       : Release for RuTracker
Encoded date                     : UTC 2012-11-08 21:54:13
Writing application              : mkvmerge v4.9.1 ('Ich will') сборка от Jul 11 2011 23:53:15
Writing library                  : libebml v1.2.1 + libmatroska v1.1.1
Video
ID                               : 1
Format                           : AVC
Format/Info                      : Advanced Video Codec
Format profile                   : High@L4.1
Format settings, CABAC           : Yes
Format settings, ReFrames        : 4 frames
Muxing mode                      : Container profile=Unknown@0.0
Codec ID                         : V_MPEG4/ISO/AVC
Duration                         : 1h 20mn
Bit rate mode                    : Variable
Maximum bit rate                 : 35.0 Mbps
Width                            : 1 920 pixels
Height                           : 1 080 pixels
Display aspect ratio             : 16:9
Frame rate                       : 23.976 fps
Color space                      : YUV
Chroma subsampling               : 4:2:0
Bit depth                        : 8 bits
Scan type                        : Progressive
Title                            : Rope 1948 1080p GER Blu-ray AVC DTS-HD MA 2.0
Language                         : English
Audio #1
ID                               : 2
Format                           : DTS
Format/Info                      : Digital Theater Systems
Codec ID                         : A_DTS
Duration                         : 1h 20mn
Bit rate mode                    : Constant
Bit rate                         : 448 Kbps
Channel(s)                       : 2 channels
Channel positions                : Front: L R
Sampling rate                    : 48.0 KHz
Bit depth                        : 24 bits
Stream size                      : 259 MiB (1%)
Title                            : Дубляж [Blu-Ray]
Language                         : Russian
Audio #2
ID                               : 3
Format                           : AC-3
Format/Info                      : Audio Coding 3
Mode extension                   : CM (complete main)
Codec ID                         : A_AC3
Duration                         : 1h 20mn
Bit rate mode                    : Constant
Bit rate                         : 192 Kbps
Channel(s)                       : 2 channels
Channel positions                : Front: L R
Sampling rate                    : 48.0 KHz
Bit depth                        : 16 bits
Stream size                      : 111 MiB (1%)
Title                            : MVO [SomeWax]
Language                         : Russian
Audio #3
ID                               : 4
Format                           : AC-3
Format/Info                      : Audio Coding 3
Mode extension                   : CM (complete main)
Codec ID                         : A_AC3
Duration                         : 1h 20mn
Bit rate mode                    : Constant
Bit rate                         : 192 Kbps
Channel(s)                       : 2 channels
Channel positions                : Front: L R
Sampling rate                    : 48.0 KHz
Bit depth                        : 16 bits
Stream size                      : 111 MiB (1%)
Title                            : MVO [НТВ+]
Language                         : Russian
Audio #4
ID                               : 5
Format                           : AC-3
Format/Info                      : Audio Coding 3
Mode extension                   : CM (complete main)
Codec ID                         : A_AC3
Duration                         : 1h 20mn
Bit rate mode                    : Constant
Bit rate                         : 192 Kbps
Channel(s)                       : 2 channels
Channel positions                : Front: L R
Sampling rate                    : 48.0 KHz
Bit depth                        : 16 bits
Stream size                      : 111 MiB (1%)
Title                            : MVO [ОРТ]
Language                         : Russian
Audio #5
ID                               : 6
Format                           : DTS
Format/Info                      : Digital Theater Systems
Format profile                   : MA
Codec ID                         : A_DTS
Duration                         : 1h 20mn
Bit rate mode                    : Variable
Channel(s)                       : 2 channels
Channel positions                : Front: L R
Sampling rate                    : 48.0 KHz
Bit depth                        : 24 bits
Language                         : English
Text #1
ID                               : 7
Format                           : UTF-8
Codec ID                         : S_TEXT/UTF8
Codec ID/Info                    : UTF-8 Plain Text
Title                            : Blu-Ray, Forced
Language                         : Russian
Text #2
ID                               : 8
Format                           : UTF-8
Codec ID                         : S_TEXT/UTF8
Codec ID/Info                    : UTF-8 Plain Text
Title                            : Blu-Ray, Full
Language                         : Russian
Text #3
ID                               : 9
Format                           : UTF-8
Codec ID                         : S_TEXT/UTF8
Codec ID/Info                    : UTF-8 Plain Text
Title                            : SomeWax
Language                         : Russian
Text #4
ID                               : 10
Format                           : UTF-8
Codec ID                         : S_TEXT/UTF8
Codec ID/Info                    : UTF-8 Plain Text
Language                         : English
Menu
00:00:00.000                     : en:00:00:00.000
00:01:57.743                     : en:00:01:57.743
00:09:27.859                     : en:00:09:27.859
00:11:42.327                     : en:00:11:42.327
00:13:36.441                     : en:00:13:36.441
00:17:13.658                     : en:00:17:13.658
00:23:34.038                     : en:00:23:34.038
00:27:10.587                     : en:00:27:10.587
00:28:16.653                     : en:00:28:16.653
00:33:12.282                     : en:00:33:12.282
00:34:24.062                     : en:00:34:24.062
00:39:59.188                     : en:00:39:59.188
00:44:25.454                     : en:00:44:25.454
00:46:42.091                     : en:00:46:42.091
00:51:57.072                     : en:00:51:57.072
01:03:18.753                     : en:01:03:18.753
01:13:21.355                     : en:01:13:21.355
01:20:10.639                     : en:01:20:10.639
Скриншоты

Зеркало

Еще



xamster писал(а):
  • Сохранены оригинальные чаптеры как на Blu-ray.
  • За исходник дорожки SomeWax спасибо Галлер.
  • За работу над субтитрами SomeWax спасибо antikillW.
  • За исходники дорожки ОРТ спасибо denismgn1987 и julia_w. Обе были не очень хорошего качества, была выбрана та, что казалась чуть лучше.
  • За исходник дорожки НТВ+ спасибо olegsa.