Лоуренс Аравийский / Lawrence of Arabia (Дэвид Лин / David Lean) [1962, Великобритания, драма, приключения, военный, биография, история, BDRip 1080p] 4x MVO (Супербит, Видеосервис, SomeWax, DVDMagia) + AVO (Либергал) + Original Eng + Sub Rus, Eng


Страна: Великобритания
Жанр: драма, приключения, военный, биография, история
Год выпуска: 1962
Продолжительность: 03:47:00
Перевод: Профессиональный (многоголосый закадровый) Супербит, Видеосервис, SomeWax, DVDMagia
Авторский (одноголосый, закадровый) П.Либергала
Субтитры: русские, английские
Оригинальная аудиодорожка: английский
Режиссер: Дэвид Лин / David Lean
В ролях: Питер О’Тул, Алек Гиннесс, Энтони Куинн, Джек Хоукинс, Омар Шариф, Хосе Феррер, Энтони Куэйл, Клод Рейнс, Артур Кеннеди, Дональд Вулфит
Описание: Фильм рассказывает о легендарном герое Первой мировой войны — английском разведчике Т. Э. Лоуренсе, действовавшем среди арабских племен и возглавившем их в походе против турок.
Доп. информация: За основу взят релиз от HDclub \ аудио дорожки
Сэмпл:
Тип релиза: BDRip 1080p
Контейнер: MKV
Видео: 1920x876 (2.2:1); 13.7 Mbps; 23.976 fps; 0.339 bpp
Аудио 1: Russian; DTS; 48.0 KHz; 6ch; 755 Kbps; MVO Супербит
Аудио 2: Russian; DTS; 48.0 KHz; 6ch; 1510 Kbps; MVO Видеосервис
Аудио 3: Russian; DTS; 48.0 KHz; 6ch; 1510 Kbps; MVO SomeWax
Аудио 4: Russian; DTS; 48.0 KHz; 6ch; 1510 Kbps; MVO DVDMagia
Аудио 5: Russian; DTS; 48.0 KHz; 6ch; 1510 Kbps; AVO П.Либергал
Аудио 6: English; DTS; 48.0 KHz; 6ch; 1510 Kbps; Original
Формат субтитров: softsub (SRT)
MediaInfo
Format : Matroska
Format version : Version 2
File size : 35.3 GiB
Duration : 3h 47mn
Overall bit rate : 22.3 Mbps
Movie name : Lawrence of Arabia (1962)- Release for HDCLUB
Encoded date : UTC 2012-09-24 11:14:13
Writing application : mkvmerge v5.0.1 ('Es ist Sommer') built on Oct 9 2011 11:55:43
Writing library : libebml v1.2.2 + libmatroska v1.3.0
Video
ID : 1
Format : AVC
Format/Info : Advanced Video Codec
Format profile : High@L4.1
Format settings, CABAC : Yes
Format settings, ReFrames : 5 frames
Codec ID : V_MPEG4/ISO/AVC
Duration : 3h 47mn
Bit rate : 13.5 Mbps
Width : 1 920 pixels
Height : 876 pixels
Display aspect ratio : 2.2:1
Frame rate : 23.976 fps
Color space : YUV
Chroma subsampling : 4:2:0
Bit depth : 8 bits
Scan type : Progressive
Bits/(Pixel*Frame) : 0.335
Stream size : 21.4 GiB (61%)
Title : EbP
Writing library : x264 core 125 r2208 d9d2288
Encoding settings : cabac=1 / ref=5 / deblock=1:-3:-3 / analyse=0x3:0x113 / me=tesa / subme=10 / psy=1 / psy_rd=1.20:0.00 / mixed_ref=1 / me_range=16 / chroma_me=1 / trellis=2 / 8x8dct=1 / cqm=0 / deadzone=21,11 / fast_pskip=0 / chroma_qp_offset=-2 / threads=12 / lookahead_threads=2 / sliced_threads=0 / nr=0 / decimate=0 / interlaced=0 / bluray_compat=0 / constrained_intra=0 / bframes=8 / b_pyramid=2 / b_adapt=2 / b_bias=0 / direct=3 / weightb=1 / open_gop=0 / weightp=2 / keyint=250 / keyint_min=23 / scenecut=40 / intra_refresh=0 / rc=crf / mbtree=0 / crf=18.0 / qcomp=0.65 / qpmin=0 / qpmax=69 / qpstep=4 / ip_ratio=1.40 / pb_ratio=1.30 / aq=1:0.65
Language : English
Default : Yes
Forced : No
Matrix coefficients : BT.709-5, BT.1361, IEC 61966-2-4 709, SMPTE RP177
Audio #1
ID : 2
Format : DTS
Format/Info : Digital Theater Systems
Codec ID : A_DTS
Duration : 3h 47mn
Bit rate mode : Constant
Bit rate : 755 Kbps
Channel(s) : 6 channels
Channel positions : Front: L C R, Side: L R, LFE
Sampling rate : 48.0 KHz
Bit depth : 24 bits
Compression mode : Lossy
Stream size : 1.20 GiB (3%)
Title : MVO Супербит
Language : Russian
Default : Yes
Forced : No
Audio #2
ID : 3
Format : DTS
Format/Info : Digital Theater Systems
Codec ID : A_DTS
Duration : 3h 47mn
Bit rate mode : Constant
Bit rate : 1 510 Kbps
Channel(s) : 6 channels
Channel positions : Front: L C R, Side: L R, LFE
Sampling rate : 48.0 KHz
Bit depth : 24 bits
Compression mode : Lossy
Stream size : 2.39 GiB (7%)
Title : MVO SomeWax
Language : Russian
Default : No
Forced : No
Audio #3
ID : 4
Format : DTS
Format/Info : Digital Theater Systems
Codec ID : A_DTS
Duration : 3h 47mn
Bit rate mode : Constant
Bit rate : 1 510 Kbps
Channel(s) : 6 channels
Channel positions : Front: L C R, Side: L R, LFE
Sampling rate : 48.0 KHz
Bit depth : 24 bits
Compression mode : Lossy
Stream size : 2.39 GiB (7%)
Title : MVO Видеосервис
Language : Russian
Default : No
Forced : No
Audio #4
ID : 5
Format : DTS
Format/Info : Digital Theater Systems
Codec ID : A_DTS
Duration : 3h 47mn
Bit rate mode : Constant
Bit rate : 1 510 Kbps
Channel(s) : 6 channels
Channel positions : Front: L C R, Side: L R, LFE
Sampling rate : 48.0 KHz
Bit depth : 24 bits
Compression mode : Lossy
Stream size : 2.39 GiB (7%)
Title : MVO DVDMagia
Language : Russian
Default : No
Forced : No
Audio #5
ID : 6
Format : DTS
Format/Info : Digital Theater Systems
Codec ID : A_DTS
Duration : 3h 47mn
Bit rate mode : Constant
Bit rate : 1 510 Kbps
Channel(s) : 6 channels
Channel positions : Front: L C R, Side: L R, LFE
Sampling rate : 48.0 KHz
Bit depth : 24 bits
Compression mode : Lossy
Stream size : 2.39 GiB (7%)
Title : AVO П.Либергал
Language : Russian
Default : No
Forced : No
Audio #6
ID : 7
Format : DTS
Format/Info : Digital Theater Systems
Codec ID : A_DTS
Duration : 3h 47mn
Bit rate mode : Constant
Bit rate : 1 510 Kbps
Channel(s) : 6 channels
Channel positions : Front: L C R, Side: L R, LFE
Sampling rate : 48.0 KHz
Bit depth : 24 bits
Compression mode : Lossy
Stream size : 2.39 GiB (7%)
Title : DTS English
Language : English
Default : No
Forced : No
Text #1
ID : 8
Format : UTF-8
Codec ID : S_TEXT/UTF8
Codec ID/Info : UTF-8 Plain Text
Title : Russian
Language : Russian
Default : No
Forced : No
Text #2
ID : 9
Format : UTF-8
Codec ID : S_TEXT/UTF8
Codec ID/Info : UTF-8 Plain Text
Title : English
Language : English
Default : No
Forced : No
Text #3
ID : 10
Format : UTF-8
Codec ID : S_TEXT/UTF8
Codec ID/Info : UTF-8 Plain Text
Title : English SDH
Language : English
Default : No
Forced : No
Menu
00:00:00.000 : en:00:00:00.000
00:00:04.004 : en:00:00:04.004
00:00:59.059 : en:00:00:59.059
00:02:44.164 : en:00:02:44.164
00:04:40.280 : en:00:04:40.280
00:06:27.387 : en:00:06:27.387
00:07:09.429 : en:00:07:09.429
00:07:45.465 : en:00:07:45.465
00:08:40.520 : en:00:08:40.520
00:09:57.597 : en:00:09:57.597
00:10:34.634 : en:00:10:34.634
00:11:09.669 : en:00:11:09.669
00:12:00.720 : en:00:12:00.720
00:12:53.773 : en:00:12:53.773
00:13:32.812 : en:00:13:32.812
00:14:26.866 : en:00:14:26.866
00:15:06.906 : en:00:15:06.906
00:16:30.990 : en:00:16:30.990
00:17:48.067 : en:00:17:48.067
00:18:55.134 : en:00:18:55.134
00:19:31.170 : en:00:19:31.170
00:20:31.230 : en:00:20:31.230
00:21:16.275 : en:00:21:16.275
00:22:31.350 : en:00:22:31.350
00:23:28.407 : en:00:23:28.407
00:25:19.518 : en:00:25:19.518
00:26:47.606 : en:00:26:47.606
00:28:29.708 : en:00:28:29.708
00:29:49.788 : en:00:29:49.788
00:30:31.830 : en:00:30:31.830
00:31:31.890 : en:00:31:31.890
00:32:24.943 : en:00:32:24.943
00:34:08.046 : en:00:34:08.046
00:35:40.138 : en:00:35:40.138
00:36:48.206 : en:00:36:48.206
00:38:55.333 : en:00:38:55.333
00:40:21.419 : en:00:40:21.419
00:43:11.589 : en:00:43:11.589
00:44:02.640 : en:00:44:02.640
00:44:41.679 : en:00:44:41.679
00:45:25.723 : en:00:45:25.723
00:45:49.747 : en:00:45:49.747
00:47:05.823 : en:00:47:05.823
00:47:32.850 : en:00:47:32.850
00:49:34.972 : en:00:49:34.972
00:51:03.060 : en:00:51:03.060
00:52:35.152 : en:00:52:35.152
00:55:08.305 : en:00:55:08.305
00:55:48.345 : en:00:55:48.345
00:56:38.395 : en:00:56:38.395
00:59:03.540 : en:00:59:03.540
01:01:40.697 : en:01:01:40.697
01:04:03.840 : en:01:04:03.840
01:07:04.020 : en:01:07:04.020
01:08:04.080 : en:01:08:04.080
01:09:14.150 : en:01:09:14.150
01:12:04.320 : en:01:12:04.320
01:13:27.403 : en:01:13:27.403
01:15:24.520 : en:01:15:24.520
01:18:39.715 : en:01:18:39.715
01:21:30.886 : en:01:21:30.886
01:23:59.034 : en:01:23:59.034
01:25:01.096 : en:01:25:01.096
01:26:15.170 : en:01:26:15.170
01:26:45.200 : en:01:26:45.200
01:28:05.280 : en:01:28:05.280
01:29:59.394 : en:01:29:59.394
01:31:05.460 : en:01:31:05.460
01:34:05.640 : en:01:34:05.640
01:35:15.710 : en:01:35:15.710
01:35:40.735 : en:01:35:40.735
01:36:35.790 : en:01:36:35.790
01:37:37.852 : en:01:37:37.852
01:41:38.092 : en:01:41:38.092
01:45:29.323 : en:01:45:29.323
01:45:51.345 : en:01:45:51.345
01:46:51.405 : en:01:46:51.405
01:47:36.450 : en:01:47:36.450
01:49:06.540 : en:01:49:06.540
01:53:27.801 : en:01:53:27.801
01:54:51.885 : en:01:54:51.885
01:56:03.957 : en:01:56:03.957
01:57:23.036 : en:01:57:23.036
01:58:30.103 : en:01:58:30.103
02:00:09.202 : en:02:00:09.202
02:02:26.339 : en:02:02:26.339
02:03:00.373 : en:02:03:00.373
02:03:47.420 : en:02:03:47.420
02:04:09.442 : en:02:04:09.442
02:07:17.630 : en:02:07:17.630
02:08:26.699 : en:02:08:26.699
02:09:27.760 : en:02:09:27.760
02:11:32.885 : en:02:11:32.885
02:12:57.970 : en:02:12:57.970
02:16:53.205 : en:02:16:53.205
02:23:45.617 : en:02:23:45.617
02:24:30.662 : en:02:24:30.662
02:25:30.722 : en:02:25:30.722
02:26:15.767 : en:02:26:15.767
02:27:15.827 : en:02:27:15.827
02:28:11.883 : en:02:28:11.883
02:30:09.000 : en:02:30:09.000
02:30:34.025 : en:02:30:34.025
02:31:14.065 : en:02:31:14.065
02:31:46.097 : en:02:31:46.097
02:32:46.157 : en:02:32:46.157
02:34:31.262 : en:02:34:31.262
02:35:31.322 : en:02:35:31.322
02:37:34.445 : en:02:37:34.445
02:38:31.502 : en:02:38:31.502
02:39:31.562 : en:02:39:31.562
02:40:07.598 : en:02:40:07.598
02:40:59.650 : en:02:40:59.650
02:41:31.682 : en:02:41:31.682
02:43:21.792 : en:02:43:21.792
02:45:21.912 : en:02:45:21.912
02:46:19.970 : en:02:46:19.970
02:48:17.087 : en:02:48:17.087
02:49:17.147 : en:02:49:17.147
02:50:17.207 : en:02:50:17.207
02:51:02.252 : en:02:51:02.252
02:51:42.292 : en:02:51:42.292
02:52:37.347 : en:02:52:37.347
02:53:20.390 : en:02:53:20.390
02:55:10.500 : en:02:55:10.500
02:56:50.600 : en:02:56:50.600
02:58:42.712 : en:02:58:42.712
03:03:33.002 : en:03:03:33.002
03:05:45.134 : en:03:05:45.134
03:06:59.208 : en:03:06:59.208
03:10:13.402 : en:03:10:13.402
03:11:07.456 : en:03:11:07.456
03:15:48.737 : en:03:15:48.737
03:17:18.827 : en:03:17:18.827
03:18:03.872 : en:03:18:03.872
03:19:01.930 : en:03:19:01.930
03:20:03.992 : en:03:20:03.992
03:22:19.127 : en:03:22:19.127
03:25:14.302 : en:03:25:14.302
03:25:42.330 : en:03:25:42.330
03:28:12.480 : en:03:28:12.480
03:30:42.630 : en:03:30:42.630
03:32:17.725 : en:03:32:17.725
03:36:49.997 : en:03:36:49.997
03:39:13.140 : en:03:39:13.140
03:42:33.340 : en:03:42:33.340
03:43:35.402 : en:03:43:35.402
Скриншоты
Цитата:
*** Сохранены оригинальные чаптеры как на Blu-ray.
*** Дорожки №2,5 получены наложением чистого голоса на центр декодированного DTS-HD MA.
*** Дорожки №3,4 получены наложением выделенных голосов на центр декодированного DTS-HD MA.
*** За выделение голосов спасибо Прагматик-у.
*** DVDMagia из личной коллекции Прагматик-а.
*** Перевод Видеосервиса выкуплен в рамках сервиса "Озвучивание". Спонсоры: BLADE, gelom, tatkhmeln, Кириллка, Прагматик, lawyers, markinscor.