Красавица и чудовище / Beauty and the Beast / La belle et la bête (Жан Кокто, Рене Клеман / Jean Cocteau, Rene Clement) [1946, Франция, драма, мелодрама, фэнтези, BDRip 1080p] MVO + Sub Rus, Eng + Original Fre


Страна: Франция
Студия: DisCina
Жанр: Драма, мелодрама, фэнтези
Год выпуска: 1946
Продолжительность: 01:33:55
Перевод: Профессиональный (многоголосый закадровый)
Субтитры: русские, английские
Оригинальная аудиодорожка: французский
Режиссер: Жан Кокто, Рене Клеман / Jean Cocteau, Rene Clement
В ролях: Жан Маре, Джозетт Дэй, Мила Парели, Нан Жермон, Мишель Оклер, Рауль Марко, Марсель Андре, Джанис Фелти, Жан Котер, Ана Мария Мартинез
Описание: Давным-давно, жил был купец с сыном Людовиком и тремя дочерьми. Однажды купец заблудился в лесу и попал в заколдованный замок. В прекрасном саду он увидел розу и сорвал ее для любимой дочери Белль, но тут появился страшный монстр — владелец замка.
Разгневанное чудовище обещало убить купца, но согласилось заменить его на Белль. Когда красавица приходит в замок, она обнаруживает, что Чудовище не так жестоко, как выглядит, у него есть душа и сердце…
Сэмпл:
Тип релиза: BDRip 1080p
Контейнер: MKV
Видео: H.264/AVC, 1424x1072p, 23.976 fps, x264 ~12.4 Mbps
Аудио#1: Russian: 48 kHz, AC3, 2/0 (L,R) ch, ~192.00 kbps avg |Многоголосый закадровый|
Аудио#2: French: 48 kHz, AC3, 1/0 (C) ch, ~640.00 kbps avg
Аудио#3: French: 48 kHz, DTS, 3/2 (L,C,R,l,r) + LFE ch, ~1536.00 kbps avg |Philip Glass' Opera|
Аудио#4: English: 48 kHz, AC3, 1/0 (C) ch, ~192.00 kbps avg |Commentary with film historian Arthur Knight|
Аудио#5: English: 48 kHz, AC3, 1/0 (C) ch, ~192.00 kbps avg |Commentary with writer and cultural historian Sir Christopher Frayling|
Формат субтитров: softsub (SRT)
MediaInfo
Format : Matroska
Format version : Version 2
File size : 9.92 GiB
Duration : 1h 33mn
Overall bit rate : 15.1 Mbps
Encoded date : UTC 2012-09-20 14:34:23
Writing application : mkvmerge v5.0.1 ('Es ist Sommer') built on Nov 6 2011 16:23:40
Writing library : libebml v1.2.2 + libmatroska v1.3.0
Video
ID : 1
Format : AVC
Format/Info : Advanced Video Codec
Format profile : High@L4.1
Format settings, CABAC : Yes
Format settings, ReFrames : 5 frames
Codec ID : V_MPEG4/ISO/AVC
Duration : 1h 33mn
Bit rate : 12.4 Mbps
Width : 1 424 pixels
Height : 1 072 pixels
Display aspect ratio : 4:3
Frame rate : 23.976 fps
Color space : YUV
Chroma subsampling : 4:2:0
Bit depth : 8 bits
Scan type : Progressive
Bits/(Pixel*Frame) : 0.339
Stream size : 7.94 GiB (80%)
Writing library : x264 core 120 r2164 da19765
Encoding settings : cabac=1 / ref=5 / deblock=1:-3:-3 / analyse=0x3:0x133 / me=umh / subme=9 / psy=1 / psy_rd=1.00:0.15 / mixed_ref=1 / me_range=16 / chroma_me=1 / trellis=2 / 8x8dct=1 / cqm=0 / deadzone=21,11 / fast_pskip=1 / chroma_qp_offset=-3 / threads=12 / sliced_threads=0 / nr=0 / decimate=1 / interlaced=0 / bluray_compat=0 / constrained_intra=0 / bframes=3 / b_pyramid=2 / b_adapt=2 / b_bias=0 / direct=3 / weightb=1 / open_gop=0 / weightp=2 / keyint=240 / keyint_min=23 / scenecut=40 / intra_refresh=0 / rc_lookahead=60 / rc=2pass / mbtree=1 / bitrate=12399 / ratetol=1.0 / qcomp=0.60 / qpmin=0 / qpmax=69 / qpstep=4 / cplxblur=20.0 / qblur=0.5 / ip_ratio=1.40 / aq=1:1.00
Language : English
Default : Yes
Forced : No
Audio #1
ID : 2
Format : AC-3
Format/Info : Audio Coding 3
Mode extension : CM (complete main)
Codec ID : A_AC3
Duration : 1h 33mn
Bit rate mode : Constant
Bit rate : 192 Kbps
Channel(s) : 2 channels
Channel positions : Front: L R
Sampling rate : 48.0 KHz
Bit depth : 16 bits
Compression mode : Lossy
Stream size : 129 MiB (1%)
Title : MVO
Language : Russian
Default : Yes
Forced : No
Audio #2
ID : 3
Format : AC-3
Format/Info : Audio Coding 3
Mode extension : CM (complete main)
Codec ID : A_AC3
Duration : 1h 33mn
Bit rate mode : Constant
Bit rate : 640 Kbps
Channel(s) : 1 channel
Channel positions : Front: C
Sampling rate : 48.0 KHz
Bit depth : 16 bits
Compression mode : Lossy
Stream size : 430 MiB (4%)
Title : Original
Language : French
Default : No
Forced : No
Audio #3
ID : 4
Format : DTS
Format/Info : Digital Theater Systems
Codec ID : A_DTS
Duration : 1h 33mn
Bit rate mode : Constant
Bit rate : 1 510 Kbps
Channel(s) : 6 channels
Channel positions : Front: L C R, Side: L R, LFE
Sampling rate : 48.0 KHz
Bit depth : 24 bits
Compression mode : Lossy
Stream size : 1 014 MiB (10%)
Title : Philip Glass' Opera
Language : French
Default : No
Forced : No
Audio #4
ID : 5
Format : AC-3
Format/Info : Audio Coding 3
Mode extension : CM (complete main)
Codec ID : A_AC3
Duration : 1h 33mn
Bit rate mode : Constant
Bit rate : 192 Kbps
Channel(s) : 1 channel
Channel positions : Front: C
Sampling rate : 48.0 KHz
Bit depth : 16 bits
Compression mode : Lossy
Stream size : 129 MiB (1%)
Title : Commentary with film historian Arthur Knight
Language : English
Default : No
Forced : No
Audio #5
ID : 6
Format : AC-3
Format/Info : Audio Coding 3
Mode extension : CM (complete main)
Codec ID : A_AC3
Duration : 1h 33mn
Bit rate mode : Constant
Bit rate : 192 Kbps
Channel(s) : 1 channel
Channel positions : Front: C
Sampling rate : 48.0 KHz
Bit depth : 16 bits
Compression mode : Lossy
Stream size : 129 MiB (1%)
Title : Commentary with writer and cultural historian Sir Christopher Frayling
Language : English
Default : No
Forced : No
Text #1
ID : 7
Format : UTF-8
Codec ID : S_TEXT/UTF8
Codec ID/Info : UTF-8 Plain Text
Language : Russian
Default : No
Forced : No
Text #2
ID : 8
Format : UTF-8
Codec ID : S_TEXT/UTF8
Codec ID/Info : UTF-8 Plain Text
Language : English
Default : No
Forced : No
Скриншоты