(Classical) J. S. Bach - Cantatas for the compete Liturgical Year, vol.4 (BWV 16, 153, 65, 154) - La Petite Bande, S.Kuijken - 2006, FLAC (image+.cue) lossless


Жанр: Classical
Страна-производитель диска: Germany
Год издания диска: 2006
Издатель (лейбл): ACCENT
Номер по каталогу: ACC 25304
Дата записи: 2006
Аудиокодек: FLAC
Тип рипа: image+.cue
Битрейт аудио: lossless
Продолжительность: 61:30
Источник: скачано с
сайт-источник/ник/другое: eMule
Наличие сканов в содержимом раздачи: да
Треклист:
Cantatas for the Complete Liturgical Year
Johann Sebastian Bach (1685-1750)
CANTATAS BWV 16 - 153 - 65 - 154

'Sie werden aus Saba alle kommen'
New Year's Cantata
„Herr Gott, dich loben wir" BWV 16
1 Chorus: „Herr Gott, dich loben wir"
2 Recitative (bass): „So stimmen wir bei dieser"
3 Aria (bass and Chorus): „Lasst uns jauchzen"
4 Recitative (alto): „Ach treuer Hort“
5 Aria (tenor): „Geliebter Jesu1 du allein"
6 Chorale: „All solch dein Gut wir preisen"
Sunday after New Year
„Schau lieber Gott, wie meine Feind" BWV 153
7 Chorale: „Schau lieber Gott, wie meine Feind“
8 Recitative (alto): „Mein liebster Gott"
9 Arioso (bass): „Fürchte dich nicht, ich bin mit dir”
10 Recitative (tenor): „Du sprichst zwar, lieber Gott"
11 Chorale: „Und ob gleich alle Teufel“
12 Aria (tenor): „Stürmt nur, stürmt, ihr Trübsalswetter"
13 Recitative (bass): „Getrost, mein Herz“
14 Aria (alto): „Soll ich meinen Lebenslauf
15 Chorale: „Drum will ich, weil ich lebe noch"
Epiphany
„Sie werden aus Saba alle kommen" BWV 65
16 Chorus: „Sie werden aus Saba alle kommen"
17 Chorale: „Die Kön'ge aus Saba kamen dar"
18 Recitative (bass): „Was dort Jesaias vorgesehn“
19 Aria (bass): „Gold aus Ophir ist zu schlecht“
20 Recitative (tenor): „Verschmähe nicht"
21 Aria (tenor): „Nimm mich dir zu eigen hin“
22 Chorale: „Ei nun, mein Gott, so fall ich dir"
First Sunday after Epiphany
„Mein liebster Jesus ist verloren" BWV 154
23 Aria (tenor): „Mein IiebsterJesus ist verloren"
24 Recitative (tenor): „Wo treff ich meinen Jesum an"
25 Chorale: „Jesu, mein Hort und Erretter"
26 Aria (alto): „Jesu, lass dich finden“
27 Arioso (bass): „Wisset ihr nicht, dass ich sein muss"
28 Recitative (tenor): „Dies ist die Stimme"
29 Aria (alto, tenor): „Wohl mir, Jesus ist gefunden
30 Chorale: „Meinen Jesum lass ich nicht"
Исполнители:
Elisabeth Hermans, soprano
Petra Noskaiovä, alto
Jan Kobow, tenor
Jan Van der Crabben, baritone
La Petite Bande
Sigiswald Kuijken
Лог создания рипа
Exact Audio Copy V0.99 prebeta 1 from 25. May 2007
Archivo Log de extracciones desde 15. Noviembre 2007, 21:40
J.S. Bach - La Petite Bande, Sigiswald Kuijken / Cantatas BWV 16 - 153 - 65 - 154
Usar unidad : PLEXTOR DVDR PX-800A Adapter: 0 ID: 0
Modo de Lectura : Seguro
Utilizar Corriente Exacta : Sн
Descartar Audio cachй : Sн
Utilizar los punteros C2 : No
Correcciуn de Desplazamiento de Lectura : 48
Sobreleer tanto en Lead-In como en Lead-Out : No
Rellenar las muestras faltantes con silencios : Sн
Eliminar silencios inicial y final : No
Interfaz usada : Interfaz ASPI externo instalado
Formato de Salida utilizado : Compresor definido por el usuario
Bitrate seleccionado : 128 kBit/s
Calidad : Alta
Aсadir Etiqueta ID3 : No
Compresor de linea de comandos : C:\Exact Audio Copy\Flac\flac.exe
Opciones adicionales en lнnea de comandos : -V -8 -T "artist=%a" -T "title=%t" -T "album=%g" -T "date=%y" -T "tracknumber=%n" -T "genre=%m" %s
TOC del CD extraido
Pista | Inicio | Duraciуn | Sector inicial | Sector final
-------------------------------------------------------------
1 | 0:00.00 | 1:33.41 | 0 | 7015
2 | 1:33.41 | 1:15.33 | 7016 | 12673
3 | 2:48.74 | 3:45.49 | 12674 | 29597
4 | 6:34.48 | 1:25.07 | 29598 | 35979
5 | 7:59.55 | 7:30.46 | 35980 | 69775
6 | 15:30.26 | 1:19.46 | 69776 | 75746
7 | 16:49.72 | 0:58.72 | 75747 | 80168
8 | 17:48.69 | 0:39.67 | 80169 | 83160
9 | 18:28.61 | 1:38.54 | 83161 | 90564
10 | 20:07.40 | 1:38.02 | 90565 | 97916
11 | 21:45.42 | 1:08.08 | 97917 | 103024
12 | 22:53.50 | 2:32.13 | 103025 | 114437
13 | 25:25.63 | 1:34.17 | 114438 | 121504
14 | 27:00.05 | 2:17.62 | 121505 | 131841
15 | 29:17.67 | 1:30.08 | 131842 | 138599
16 | 30:48.00 | 3:35.62 | 138600 | 154786
17 | 34:23.62 | 0:32.00 | 154787 | 157186
18 | 34:55.62 | 2:00.29 | 157187 | 166215
19 | 36:56.16 | 2:44.13 | 166216 | 178528
20 | 39:40.29 | 1:23.55 | 178529 | 184808
21 | 41:04.09 | 3:34.49 | 184809 | 200907
22 | 44:38.58 | 1:35.17 | 200908 | 208049
23 | 46:14.00 | 2:27.19 | 208050 | 219093
24 | 48:41.19 | 0:35.62 | 219094 | 221780
25 | 49:17.06 | 1:07.13 | 221781 | 226818
26 | 50:24.19 | 3:36.59 | 226819 | 243077
27 | 54:01.03 | 1:10.46 | 243078 | 248373
28 | 55:11.49 | 1:52.08 | 248374 | 256781
29 | 57:03.57 | 3:31.03 | 256782 | 272609
30 | 60:34.60 | 0:55.15 | 272610 | 276749
Gama de estados y errores
Seleccionar gama
Nombre de Archivo H:\Publicaciones SonusAntiqva\J.S. Bach - La Petite Bande, Sigiswald Kuijken - Cantatas BWV 16 - 153 - 65 - 154.wav
Nivel Pico 99.2 %
Gama de Calidad 100.0 %
Test CRC 7FA2262F
Copiar CRC 7FA2262F
Copia OK
Resumen AccurateRip
Pista 1 no presente en la base de datos
Pista 2 no presente en la base de datos
Pista 3 no presente en la base de datos
Pista 4 no presente en la base de datos
Pista 5 no presente en la base de datos
Pista 6 no presente en la base de datos
Pista 7 no presente en la base de datos
Pista 8 no presente en la base de datos
Pista 9 no presente en la base de datos
Pista 10 no presente en la base de datos
Pista 11 no presente en la base de datos
Pista 12 no presente en la base de datos
Pista 13 no presente en la base de datos
Pista 14 no presente en la base de datos
Pista 15 no presente en la base de datos
Pista 16 no presente en la base de datos
Pista 17 no presente en la base de datos
Pista 18 no presente en la base de datos
Pista 19 no presente en la base de datos
Pista 20 no presente en la base de datos
Pista 21 no presente en la base de datos
Pista 22 no presente en la base de datos
Pista 23 no presente en la base de datos
Pista 24 no presente en la base de datos
Pista 25 no presente en la base de datos
Pista 26 no presente en la base de datos
Pista 27 no presente en la base de datos
Pista 28 no presente en la base de datos
Pista 29 no presente en la base de datos
Pista 30 no presente en la base de datos
Sin Errores
Final del Informe